Przerażacze - The Frighteners (1996) [THEATRICAL.CUT][2160p].[H265].[10bit] [HDR][AC3-5.1] [Lektor PL] torrent

 
Przerażacze - The Frighteners (1996) [THEATRICAL.CUT][2160p].[H265].[10bit] [HDR][AC3-5.1] [Lektor PL] torrent


Pozycję wystawił:
Ishimura
Dodano:25.01.2023
Kategoria:4K
Rozmiar:4.78 GB
Seedów:2
Peerów:1
Pobrań:10

Przerażacze - The Frighteners (1996)
[THEATRICAL.CUT][2160p].[H265].[10bit] [HDR][AC3-5.1] [Lektor PL] torrent


...( Info )...

Produkcja: USA, Nowa Zelandia
Gatunek: Horror, Komedia
Premiera: 17 lipca 1996 (Światowa premiera)
Reżyseria: Peter Jackson
Scenariusz: Peter Jackson, Fran Walsh

...( Opis )...

Miasteczko Fairwater zostaje zaatakowane przez tajemniczą siłę. Ponad 30 osób umiera na niespodziewane zawały serca. Okazuje się, że przyczyną tego są upiory, siejące grozę i śmierć. Do walki z nimi staje detektyw-parapsycholog Frank Bannister, który zarabia na życie jako pogromca duchów. Jego klientami zostaje młode małżeństwo, w których mieszkaniu straszy. Mężczyzna wkrótce umiera, a jego żona prosi Franka, aby pomógł jej się z nim skontaktować. Działalnością Bannistera zaczyna interesować się FBI.

...( Obsada )...

Michael J. Fox .... Frank Bannister
Trini Alvarado .... Lucy Lynskey
Peter Dobson .... Ray Lynskey
John Astin .... Sędzia
Jeffrey Combs .... Milton Dammers
Dee Wallace .... Patricia Bradley
Jake Busey .... Johnny Bartlett
Chi McBride .... Cyrus

...( Dane Techniczne )...

Video
ID : 1
Format : HEVC
Format/Info : High Efficiency Video Coding
Format profile : Main 10L5Main
HDR format : Dolby Vision, Version 1.0, dvhe.07.06, BL+EL+RPU, Blu-ray compatible
Codec ID : V_MPEGH/ISO/HEVC
Duration : 1 h 50 min
Bit rate : 5 830 kb/s
Width : 3 840 pixels
Height : 2 160 pixels
Display aspect ratio : 16:9
Frame rate mode : Constant
Frame rate : 23.976 (24000/1001) FPS
Color space : YUV
Chroma subsampling : 4:2:0
Bit depth : 10 bits
Bits/(PixelFrame) : 0.029
Stream size : 4.48 GiB (94)

Audio
ID : 2
Format : E-AC-3
Format/Info : Enhanced AC-3
Commercial name : Dolby Digital Plus
Codec ID : A_EAC3
Duration : 1 h 49 min
Bit rate mode : Constant
Bit rate : 384 kb/s
Channel(s) : 6 channels
Channel layout : L R C LFE Ls Rs
Sampling rate : 48.0 kHz
Frame rate : 31.250 FPS (1536 SPF)
Bit depth : 32 bits
Compression mode : Lossy
Delay relative to video : 3 ms
Stream size : 301 MiB (6)
 




Aby dodać komentarz należy się zalogować

Logowanie logowanie

Twoja ocena
Podobne torrenty
Przerażacze / The Frighteners (1996) [BDRip 576p x265-LTN] [Lektor PL]    Przerażacze - The Frighteners (1996) [720p] [THEATRICAL CUT] [BDRip] [XviD] [AC3] [Lektor PL]    Przerażacze / The Frighteners (1996) [720p] [BDRiP] [XviD] [AC3-LTS] [Lektor PL]    Przerażacze - The Frighteners *1996* [DVDRip][RMVB][Eng][Napisy pl]PINHEAD

Przerażacze / The Frighteners (1996) [BDRip 576p x265-LTN] [Lektor PL]

Przerażacze - The Frighteners (1996) [720p] [THEATRICAL.CUT] [BDRip] [XviD] [AC3] [Lektor PL]

Przerażacze / The Frighteners (1996) [720p] [BDRiP] [XviD] [AC3-LTS] [Lektor PL]

Przerażacze - The Frighteners *1996* [DVDRip][RMVB][Eng][Napisy pl]PINHEAD




Shoutbox (zawartość shoutboxa widoczna dla zalogowanych użytkowników)


Żaden z plików nie znajduje się na serwerze. Torrenty są własnością użytkowników. Administrator serwisu nie może ponieść konsekwencji za to co użytkownicy wstawiają, lub za to co czynią na stronie. Nie możesz używać tego serwisu do rozpowszechniania lub ściągania materiałów do których nie masz odpowiednich praw lub licencji. Użytkownicy odpowiedzialni są za przestrzeganie tych zasad. profil torrentcity.pl