Elvis 2022 [2160p] [WEB-DL] [HDR] [x265] [10bit] [HT] [DDP5.1 Atmos] [Napisy PL] torrent

 
Elvis 2022 [2160p] [WEB-DL] [HDR] [x265] [10bit] [HT] [DDP5.1 Atmos] [Napisy PL] torrent


Pozycję wystawił:
Ishimura
Dodano:09.08.2022
Kategoria:4K
Rozmiar:28.04 GB
Seedów:0
Peerów:0
Pobrań:0

Elvis 2022 [2160p] [WEB-DL] [HDR] [x265] [10bit] [HT] [DDP5.1
Atmos] [Napisy PL] torrent


Tytuł: Elvis
Produkcja: USA / Australia
Gatunek: Biograficzny / Dramat / Muzyczny
Premiera: 24 czerwca 2022 (Polska premiera kinowa)
Reżyseria: Baz Luhrmann
Scenariusz: Sam Bromell / Baz Luhrmann
Czas trwania: 2 godz. 39 min.

Ocena: IMDB - 7.8/10 (57173), Filmweb - 7.4/10 (14492)

https://www.filmweb.pl/film/Elvis-2022-856764
https://www.imdb.com/title/tt3704428/

Historia Elvisa Presleya (Butler) zgłębia złożoną, ponad dwudziestoletnią relację Presleya z Parkerem (Hanks), która rozpoczęła się wraz z początkiem bezprecedensowej kariery piosenkarza, na tle ewoluującego krajobrazu kulturowego i końca amerykańskiej niewinności. Kluczowym elementem opowieści jest jedna z najważniejszych i najbardziej wpływowych osób w życiu Elvisa, Priscilla Presley.

★ Austin Butler .... Elvis Presley
★ Tom Hanks .... Pułkownik Tom Parker
★ Olivia DeJonge .... Priscilla Presley
★ Helen Thomson .... Gladys Presley
★ Richard Roxburgh .... Vernon Presley
★ Kelvin Harrison Jr. .... B.B. King
★ David Wenham .... Hank Snow
★ Kodi Smit-McPhee .... Jimmie Rodgers Snow

Format : Matroska
Format version : Version 4
File size : 28.0 GiB
Duration : 2 h 39 min
Overall bit rate : 25.2 Mb/s
Encoded date : UTC 2022-08-08 05:36:20
Writing application : mkvmerge v66.0.0 (Josie) 64-bit
Writing library : libebml v1.4.2 + libmatroska v1.6.4

Video
ID : 1
Format : HEVC
Format/Info : High Efficiency Video Coding
Format profile : Main /cdn-cgi/l/email-protection at High
HDR format : SMPTE ST 2086, HDR10 compatible
Codec ID : V_MPEGH/ISO/HEVC
Duration : 2 h 39 min
Bit rate : 24.4 Mb/s
Width : 3 840 pixels
Height : 1 604 pixels
Display aspect ratio : 2.40:1
Frame rate mode : Constant
Frame rate : 23.976 FPS
Color space : YUV
Chroma subsampling : 4:2:0 (Type 2)
Bit depth : 10 bits
Bits/(PixelFrame) : 0.166
Stream size : 27.2 GiB (97)
Language : English
Default : Yes
Forced : No
Color range : Limited
Color primaries : BT.2020
Transfer characteristics : PQ
Matrix coefficients : BT.2020 non-constant
Mastering display color pri : BT.2020
Mastering display luminance : min: 0.0050 cd/m2, max: 1000 cd/m2
Maximum Content Light Level : 1115 cd/m2
Maximum Frame-Average Light : 333 cd/m2

Audio
ID : 2
Format : E-AC-3 JOC
Format/Info : Enhanced AC-3 with Joint Object Coding
Commercial name : Dolby Digital Plus with Dolby Atmos
Codec ID : A_EAC3
Duration : 2 h 39 min
Bit rate mode : Constant
Bit rate : 768 kb/s
Channel(s) : 6 channels
Channel layout : L R C LFE Ls Rs
Sampling rate : 48.0 kHz
Frame rate : 31.250 FPS (1536 SPF)
Compression mode : Lossy
Stream size : 875 MiB (3)
Language : English
Service kind : Complete Main
Default : Yes
Forced : No
Complexity index : 16
Number of dynamic objects : 15
Bed channel count : 1 channel
Bed channel configuration : LFE

Text #1
ID : 3
Format : UTF-8
Codec ID : S_TEXT/UTF8
Codec ID/Info : UTF-8 Plain Text
Duration : 2 h 39 min
Bit rate : 88 b/s
Count of elements : 2827
Stream size : 103 KiB (0)
Title : SDH
Language : English
Default : No
Forced : No

Text #2
ID : 4
Format : UTF-8
Codec ID : S_TEXT/UTF8
Codec ID/Info : UTF-8 Plain Text
Duration : 2 h 39 min
Bit rate : 78 b/s
Count of elements : 2537
Stream size : 91.5 KiB (0)
Language : English
Default : No
Forced : No

Text #3
ID : 5
Format : UTF-8
Codec ID : S_TEXT/UTF8
Codec ID/Info : UTF-8 Plain Text
Duration : 2 h 38 min
Bit rate : 54 b/s
Count of elements : 1764
Stream size : 63.6 KiB (0)
Language : Polish
Default : Yes
Forced : No
 


Aby dodać komentarz należy się zalogować

Logowanie logowanie

Twoja ocena
Podobne torrenty
Elvis (2022) [720p] [WEB-DL] [XviD] [DD5 1-K83] [Lektor PL]    Elvis (2022) [720p] [WEB-DL] [H264] [DD5 1-K83] [Lektor PL i Napisy PL]    Elvis (2022) [WEB-DL] [XviD-K83] [Lektor PL]    Elvis (2022) PLSUBBED WEB-DL] [x264-K83] [Napisy PL]

Elvis (2022) [720p] [WEB-DL] [XviD] [DD5.1-K83] [Lektor PL]

Elvis (2022) [720p] [WEB-DL] [H264] [DD5.1-K83] [Lektor PL i Napisy PL]

Elvis (2022) [WEB-DL] [XviD-K83] [Lektor PL]

Elvis (2022) PLSUBBED.WEB-DL] [x264-K83] [Napisy PL]




Shoutbox (zawartość shoutboxa widoczna dla zalogowanych użytkowników)


Żaden z plików nie znajduje się na serwerze. Torrenty są własnością użytkowników. Administrator serwisu nie może ponieść konsekwencji za to co użytkownicy wstawiają, lub za to co czynią na stronie. Nie możesz używać tego serwisu do rozpowszechniania lub ściągania materiałów do których nie masz odpowiednich praw lub licencji. Użytkownicy odpowiedzialni są za przestrzeganie tych zasad. profil torrentcity.pl