Czarny ptak 2022 [S01] [1080p.ATVP.WEB-DL.DDP5.1.H264-NTb] [Napisy PL] torrent

 
Czarny ptak 2022 [S01] [1080p.ATVP.WEB-DL.DDP5.1.H264-NTb] [Napisy PL] torrent


Pozycję wystawił:
Ishimura
Dodano:05.08.2022
Kategoria:Seriale
Rozmiar:26.46 GB
Seedów:203
Peerów:202
Pobrań:9098

Czarny ptak 2022 [S01] [1080p.ATVP.WEB-DL.DDP5.1.H264-NTb] [Napisy
PL] torrent


http://mid.images.nitro.to/nitro.to_czarny_ptak_2022_s01_1080p-atvp-web-dl-ddp5-1-h264-ntb_napisy_pl.mid_9238__18423391.jpeg

Info

Produkcja: USA
Gatunek: Dramat, Kryminał
Twórca: Dennis Lehane
Platforma: Apple TV+
Premiera: 2022

Opis

Jimmy Keene, który właśnie rozpoczyna dziesięcioletnią odsiadkę, otrzymuje niezwykłą ofertę - jeśli zdoła zdobyć informacje od podejrzanego o zabójstwo Larry'ego Halla, będzie wolny. Wypełnienie tej misji staje się dla Jimmy'ego życiowym celem.

Obsada

Taron Egerton .... James Keene
Paul Walter Hauser .... Larry Hall
Sepideh Moafi .... Lauren McCauley
Greg Kinnear .... Brian Miller
Ray Liotta .... James "Big Jim" Keene
Robyn Malcolm .... Sammy Keene
Robert Wisdom .... Edmund Beaumont
Joe Williamson .... Co Carter

https://www.youtube.com/watch?v=aH1FOkJys3Y

Dane Techniczne

Video
ID : 1
Format : AVC
Format/Info : Advanced Video Codec
Format profile : HighL4
Format settings : CABAC / 4 Ref Frames
Format settings, CABAC : Yes
Format settings, Reference frames : 4 frames
Codec ID : V_MPEG4/ISO/AVC
Duration : 1 h 0 min
Bit rate : 10.0 Mb/s
Width : 1 920 pixels
Height : 960 pixels
Display aspect ratio : 2.000
Frame rate mode : Constant
Frame rate : 23.976 (24000/1001) FPS
Color space : YUV
Chroma subsampling : 4:2:0
Bit depth : 8 bits
Scan type : Progressive
Bits/(PixelFrame) : 0.226
Stream size : 4.26 GiB (93)
Default : Yes
Forced : No
Color range : Limited
Color primaries : BT.709
Transfer characteristics : BT.709
Matrix coefficients : BT.709

Audio
ID : 2
Format : E-AC-3 JOC
Format/Info : Enhanced AC-3 with Joint Object Coding
Commercial name : Dolby Digital Plus with Dolby Atmos
Codec ID : A_EAC3
Duration : 1 h 0 min
Bit rate mode : Constant
Bit rate : 768 kb/s
Channel(s) : 6 channels
Channel layout : L R C LFE Ls Rs
Sampling rate : 48.0 kHz
Frame rate : 31.250 FPS (1536 SPF)
Compression mode : Lossy
Stream size : 335 MiB (7)
Language : English
Service kind : Complete Main
Default : Yes
Forced : No
Complexity index : 16
Number of dynamic objects : 15
Bed channel count : 1 channel
Bed channel configuration : LFE

Text #1
ID : 3
Format : UTF-8
Codec ID : S_TEXT/UTF8
Codec ID/Info : UTF-8 Plain Text
Duration : 56 min 36 s
Bit rate : 45 b/s
Frame rate : 0.188 FPS
Count of elements : 638
Stream size : 18.8 KiB (0)
Language : English
Default : No
Forced : No

Text #2
ID : 4
Format : UTF-8
Codec ID : S_TEXT/UTF8
Codec ID/Info : UTF-8 Plain Text
Duration : 56 min 50 s
Bit rate : 52 b/s
Frame rate : 0.216 FPS
Count of elements : 738
Stream size : 21.9 KiB (0)
Title : SDH
Language : English
Default : No
Forced : No

Text #3
ID : 5
Format : UTF-8
Codec ID : S_TEXT/UTF8
Codec ID/Info : UTF-8 Plain Text
Duration : 59 min 50 s
Bit rate : 60 b/s
Frame rate : 0.184 FPS
Count of elements : 661
Stream size : 26.6 KiB (0)
Language : Arabic
Default : No
Forced : No

Text #4
ID : 6
Format : UTF-8
Codec ID : S_TEXT/UTF8
Codec ID/Info : UTF-8 Plain Text
Duration : 59 min 50 s
Bit rate : 65 b/s
Frame rate : 0.155 FPS
Count of elements : 555
Stream size : 28.6 KiB (0)
Language : Bulgarian
Default : No
Forced : No

Text #5
ID : 7
Format : UTF-8
Codec ID : S_TEXT/UTF8
Codec ID/Info : UTF-8 Plain Text
Duration : 59 min 50 s
Bit rate : 41 b/s
Frame rate : 0.184 FPS
Count of elements : 662
Stream size : 18.3 KiB (0)
Title : Simplified
Language : Chinese
Default : No
Forced : No

Text #6
ID : 8
Format : UTF-8
Codec ID : S_TEXT/UTF8
Codec ID/Info : UTF-8 Plain Text
Duration : 59 min 50 s
Bit rate : 43 b/s
Frame rate : 0.185 FPS
Count of elements : 663
Stream size : 19.3 KiB (0)
Title : Traditional
Language : Chinese
Default : No
Forced : No

Text #7
ID : 9
Format : UTF-8
Codec ID : S_TEXT/UTF8
Codec ID/Info : UTF-8 Plain Text
Duration : 59 min 50 s
Bit rate : 41 b/s
Frame rate : 0.174 FPS
Count of elements : 626
Stream size : 18.2 KiB (0)
Language : Czech
Default : No
Forced : No

Text #8
ID : 10
Format : UTF-8
Codec ID : S_TEXT/UTF8
Codec ID/Info : UTF-8 Plain Text
Duration : 59 min 50 s
Bit rate : 44 b/s
Frame rate : 0.161 FPS
Count of elements : 579
Stream size : 19.3 KiB (0)
Language : Danish
Default : No
Forced : No

Text #9
ID : 11
Format : UTF-8
Codec ID : S_TEXT/UTF8
Codec ID/Info : UTF-8 Plain Text
Duration : 59 min 31 s
Bit rate : 49 b/s
Frame rate : 0.165 FPS
Count of elements : 588
Stream size : 21.6 KiB (0)
Language : German
Default : No
Forced : No

Text #10
ID : 12
Format : UTF-8
Codec ID : S_TEXT/UTF8
Codec ID/Info : UTF-8 Plain Text
Duration : 59 min 50 s
Bit rate : 73 b/s
Frame rate : 0.175 FPS
Count of elements : 630
Stream size : 32.3 KiB (0)
Language : Greek
Default : No
Forced : No

Text #11
ID : 13
Format : UTF-8
Codec ID : S_TEXT/UTF8
Codec ID/Info : UTF-8 Plain Text
Duration : 59 min 50 s
Bit rate : 45 b/s
Frame rate : 0.184 FPS
Count of elements : 662
Stream size : 19.8 KiB (0)
Title : Latin American
Language : Spanish
Default : No
Forced : No

Text #12
ID : 14
Format : UTF-8
Codec ID : S_TEXT/UTF8
Codec ID/Info : UTF-8 Plain Text
Duration : 59 min 50 s
Bit rate : 43 b/s
Frame rate : 0.176 FPS
Count of elements : 633
Stream size : 19.1 KiB (0)
Title : European
Language : Spanish
Default : No
Forced : No

Text #13
ID : 15
Format : UTF-8
Codec ID : S_TEXT/UTF8
Codec ID/Info : UTF-8 Plain Text
Duration : 59 min 50 s
Bit rate : 42 b/s
Frame rate : 0.182 FPS
Count of elements : 654
Stream size : 18.5 KiB (0)
Language : Estonian
Default : No
Forced : No

Text #14
ID : 16
Format : UTF-8
Codec ID : S_TEXT/UTF8
Codec ID/Info : UTF-8 Plain Text
Duration : 59 min 50 s
Bit rate : 41 b/s
Frame rate : 0.177 FPS
Count of elements : 636
Stream size : 18.0 KiB (0)
Language : Finnish
Default : No
Forced : No

Text #15
ID : 17
Format : UTF-8
Codec ID : S_TEXT/UTF8
Codec ID/Info : UTF-8 Plain Text
Duration : 59 min 43 s
Bit rate : 43 b/s
Frame rate : 0.195 FPS
Count of elements : 700
Stream size : 18.9 KiB (0)
Title : Canadian
Language : French
Default : No
Forced : No

Text #16
ID : 18
Format : UTF-8
Codec ID : S_TEXT/UTF8
Codec ID/Info : UTF-8 Plain Text
Duration : 59 min 31 s
Bit rate : 43 b/s
Frame rate : 0.196 FPS
Count of elements : 699
Stream size : 18.9 KiB (0)
Language : French
Default : No
Forced : No

Text #17
ID : 19
Format : UTF-8
Codec ID : S_TEXT/UTF8
Codec ID/Info : UTF-8 Plain Text
Duration : 59 min 50 s
Bit rate : 60 b/s
Frame rate : 0.185 FPS
Count of elements : 663
Stream size : 26.4 KiB (0)
Language : Hebrew
Default : No
Forced : No

Text #18
ID : 20
Format : UTF-8
Codec ID : S_TEXT/UTF8
Codec ID/Info : UTF-8 Plain Text
Duration : 59 min 50 s
Bit rate : 124 b/s
Frame rate : 0.185 FPS
Count of elements : 664
Stream size : 54.5 KiB (0)
Language : Hindi
Default : No
Forced : No

Text #19
ID : 21
Format : UTF-8
Codec ID : S_TEXT/UTF8
Codec ID/Info : UTF-8 Plain Text
Duration : 59 min 50 s
Bit rate : 44 b/s
Frame rate : 0.183 FPS
Count of elements : 656
Stream size : 19.6 KiB (0)
Language : Hungarian
Default : No
Forced : No

Text #20
ID : 22
Format : UTF-8
Codec ID : S_TEXT/UTF8
Codec ID/Info : UTF-8 Plain Text
Duration : 59 min 50 s
Bit rate : 43 b/s
Frame rate : 0.184 FPS
Count of elements : 659
Stream size : 18.9 KiB (0)
Language : Indonesian
Default : No
Forced : No

Text #21
ID : 23
Format : UTF-8
Codec ID : S_TEXT/UTF8
Codec ID/Info : UTF-8 Plain Text
Duration : 59 min 31 s
Bit rate : 43 b/s
Frame rate : 0.183 FPS
Count of elements : 654
Stream size : 19.0 KiB (0)
Language : Italian
Default : No
Forced : No

Text #22
ID : 24
Format : UTF-8
Codec ID : S_TEXT/UTF8
Codec ID/Info : UTF-8 Plain Text
Duration : 59 min 51 s
Bit rate : 38 b/s
Frame rate : 0.182 FPS
Count of elements : 654
Stream size : 16.8 KiB (0)
Language : Japanese
Default : No
Forced : No

Text #23
ID : 25
Format : UTF-8
Codec ID : S_TEXT/UTF8
Codec ID/Info : UTF-8 Plain Text
Duration : 59 min 50 s
Bit rate : 49 b/s
Frame rate : 0.185 FPS
Count of elements : 664
Stream size : 21.8 KiB (0)
Language : Korean
Default : No
Forced : No

Text #24
ID : 26
Format : UTF-8
Codec ID : S_TEXT/UTF8
Codec ID/Info : UTF-8 Plain Text
Duration : 59 min 50 s
Bit rate : 45 b/s
Frame rate : 0.182 FPS
Count of elements : 654
Stream size : 19.9 KiB (0)
Language : Lithuanian
Default : No
Forced : No

Text #25
ID : 27
Format : UTF-8
Codec ID : S_TEXT/UTF8
Codec ID/Info : UTF-8 Plain Text
Duration : 59 min 50 s
Bit rate : 46 b/s
Frame rate : 0.181 FPS
Count of elements : 649
Stream size : 20.5 KiB (0)
Language : Latvian
Default : No
Forced : No

Text #26
ID : 28
Format : UTF-8
Codec ID : S_TEXT/UTF8
Codec ID/Info : UTF-8 Plain Text
Duration : 59 min 50 s
Bit rate : 45 b/s
Frame rate : 0.184 FPS
Count of elements : 659
Stream size : 19.8 KiB (0)
Language : Malay
Default : No
Forced : No

Text #27
ID : 29
Format : UTF-8
Codec ID : S_TEXT/UTF8
Codec ID/Info : UTF-8 Plain Text
Duration : 59 min 50 s
Bit rate : 41 b/s
Frame rate : 0.159 FPS
Count of elements : 572
Stream size : 18.1 KiB (0)
Language : Dutch
Default : No
Forced : No

Text #28
ID : 30
Format : UTF-8
Codec ID : S_TEXT/UTF8
Codec ID/Info : UTF-8 Plain Text
Duration : 59 min 50 s
Bit rate : 41 b/s
Frame rate : 0.164 FPS
Count of elements : 588
Stream size : 18.4 KiB (0)
Language : Norwegian
Default : No
Forced : No

Text #29
ID : 31
Format : UTF-8
Codec ID : S_TEXT/UTF8
Codec ID/Info : UTF-8 Plain Text
Duration : 59 min 50 s
Bit rate : 42 b/s
Frame rate : 0.180 FPS
Count of elements : 648
Stream size : 18.8 KiB (0)
Language : Polish
Default : No
Forced : No

Text #30
ID : 32
Format : UTF-8
Codec ID : S_TEXT/UTF8
Codec ID/Info : UTF-8 Plain Text
Duration : 59 min 50 s
Bit rate : 42 b/s
Frame rate : 0.178 FPS
Count of elements : 638
Stream size : 18.7 KiB (0)
Title : Brazilian
Language : Portuguese
Default : No
Forced : No

Text #31
ID : 33
Format : UTF-8
Codec ID : S_TEXT/UTF8
Codec ID/Info : UTF-8 Plain Text
Duration : 59 min 50 s
Bit rate : 44 b/s
Frame rate : 0.183 FPS
Count of elements : 657
Stream size : 19.6 KiB (0)
Language : Portuguese
Default : No
Forced : No

Text #32
ID : 34
Format : UTF-8
Codec ID : S_TEXT/UTF8
Codec ID/Info : UTF-8 Plain Text
Duration : 59 min 50 s
Bit rate : 68 b/s
Frame rate : 0.185 FPS
Count of elements : 664
Stream size : 30.1 KiB (0)
Language : Russian
Default : No
Forced : No

Text #33
ID : 35
Format : UTF-8
Codec ID : S_TEXT/UTF8
Codec ID/Info : UTF-8 Plain Text
Duration : 59 min 50 s
Bit rate : 42 b/s
Frame rate : 0.183 FPS
Count of elements : 656
Stream size : 18.6 KiB (0)
Language : Slovak
Default : No
Forced : No

Text #34
ID : 36
Format : UTF-8
Codec ID : S_TEXT/UTF8
Codec ID/Info : UTF-8 Plain Text
Duration : 59 min 50 s
Bit rate : 37 b/s
Frame rate : 0.174 FPS
Count of elements : 625
Stream size : 16.6 KiB (0)
Language : Slovenian
Default : No
Forced : No

Text #35
ID : 37
Format : UTF-8
Codec ID : S_TEXT/UTF8
Codec ID/Info : UTF-8 Plain Text
Duration : 59 min 50 s
Bit rate : 46 b/s
Frame rate : 0.174 FPS
Count of elements : 624
Stream size : 20.6 KiB (0)
Language : Swedish
Default : No
Forced : No

Text #36
ID : 38
Format : UTF-8
Codec ID : S_TEXT/UTF8
Codec ID/Info : UTF-8 Plain Text
Duration : 59 min 50 s
Bit rate : 136 b/s
Frame rate : 0.185 FPS
Count of elements : 663
Stream size : 59.8 KiB (0)
Language : Tamil
Default : No
Forced : No

Text #37
ID : 39
Format : UTF-8
Codec ID : S_TEXT/UTF8
Codec ID/Info : UTF-8 Plain Text
Duration : 59 min 50 s
Bit rate : 132 b/s
Frame rate : 0.185 FPS
Count of elements : 663
Stream size : 58.0 KiB (0)
Language : Telugu
Default : No
Forced : No

Text #38
ID : 40
Format : UTF-8
Codec ID : S_TEXT/UTF8
Codec ID/Info : UTF-8 Plain Text
Duration : 59 min 50 s
Bit rate : 113 b/s
Frame rate : 0.185 FPS
Count of elements : 663
Stream size : 49.9 KiB (0)
Language : Thai
Default : No
Forced : No

Text #39
ID : 41
Format : UTF-8
Codec ID : S_TEXT/UTF8
Codec ID/Info : UTF-8 Plain Text
Duration : 59 min 50 s
Bit rate : 44 b/s
Frame rate : 0.183 FPS
Count of elements : 656
Stream size : 19.6 KiB (0)
Language : Turkish
Default : No
Forced : No

Text #40
ID : 42
Format : UTF-8
Codec ID : S_TEXT/UTF8
Codec ID/Info : UTF-8 Plain Text
Duration : 59 min 50 s
Bit rate : 66 b/s
Frame rate : 0.185 FPS
Count of elements : 664
Stream size : 29.0 KiB (0)
Language : Ukrainian
Default : No
Forced : No

Text #41
ID : 43
Format : UTF-8
Codec ID : S_TEXT/UTF8
Codec ID/Info : UTF-8 Plain Text
Duration : 59 min 50 s
Bit rate : 60 b/s
Frame rate : 0.184 FPS
Count of elements : 661
Stream size : 26.3 KiB (0)
Language : Vietnamese
Default : No
Forced : No

Text #42
ID : 44
Format : UTF-8
Codec ID : S_TEXT/UTF8
Codec ID/Info : UTF-8 Plain Text
Duration : 59 min 50 s
Bit rate : 39 b/s
Frame rate : 0.185 FPS
Count of elements : 663
Stream size : 17.5 KiB (0)
Title : Cantonese
Language : Chinese
Default : No
Forced : No
 


Aby dodać komentarz należy się zalogować

Logowanie logowanie

Twoja ocena
Podobne torrenty
Czarny Telefon - The Black Phone (2021) PLSUB 1080p WebRip XviD] [AC3 SK13] [Napisy PL]    CZARNY TELEFON The Black Phone (2021) [1080p] [WEBRip] [DDP5 1 Atmos] [x264-CM] [ENG]    Czarny Krab - Black Crab (2022) MULTi_PL NF 1080p WEB-DL] [H264 DDP5 1-K83 - Lektor i Napisy PL [PL]    Czarny rumak - The Black Stallion (1979) [1080p BDRip] [DD 2 0 x264-OK] [Lektor PL]

Czarny Telefon - The Black Phone (2021) PLSUB 1080p.WebRip.XviD] [AC3.SK13] [Napisy PL]

CZARNY TELEFON  The Black Phone (2021) [1080p] [WEBRip] [DDP5.1.Atmos] [x264-CM] [ENG]

Czarny Krab - Black Crab (2022) MULTi_PL.NF.1080p.WEB-DL] [H264.DDP5.1-K83 - Lektor i Napisy PL [PL]

Czarny rumak - The Black Stallion (1979) [1080p.BDRip] [DD.2.0.x264-OK] [Lektor PL]




Shoutbox (zawartość shoutboxa widoczna dla zalogowanych użytkowników)


Żaden z plików nie znajduje się na serwerze. Torrenty są własnością użytkowników. Administrator serwisu nie może ponieść konsekwencji za to co użytkownicy wstawiają, lub za to co czynią na stronie. Nie możesz używać tego serwisu do rozpowszechniania lub ściągania materiałów do których nie masz odpowiednich praw lub licencji. Użytkownicy odpowiedzialni są za przestrzeganie tych zasad. profil torrentcity.pl