Stranger Things *2022* [S04 COMPLETE] [540p] [NF] [WEBRip] [DDP5.1] [x264] [Lektor & Napisy PL] torrent

 
Stranger Things *2022* [S04 COMPLETE] [540p] [NF] [WEBRip] [DDP5.1] [x264] [Lektor & Napisy PL] torrent


Pozycję wystawił:
roberto92r
Dodano:08.07.2022
Kategoria:Seriale
Rozmiar:12.14 GB
Seedów:0
Peerów:0
Pobrań:0

Stranger Things *2022* [S04 COMPLETE] [540p] [NF] [WEBRip] [DDP5.1]
[x264] [Lektor & Napisy PL] torrent

[Sci-Fi]


Produkcja: USA
Gatunek: Dramat, Horror, Sci-Fi
Premiera (Sezon 4): 27 maja 2022 (Part 1), 01 lipca 2022 (Complete S04)
Muzyka: Brak danych
Zdjęcia: Brak danych

Source: Netflix

...( Opis )...

S04E08: Nancy dręczą przerażające wizje, a Jedenastka zdaje ważny test. W Hawkins ekipa uzupełnia zapasy i przygotowuje się do bitwy.

...( Obsada )...

★ Winona Ryder .... Joyce Byers
★ David Harbour .... Komendant Jim Hopper
★ Finn Wolfhard .... Mike Wheeler
★ Millie Bobby Brown .... Eleven
★ Gaten Matarazzo .... Dustin Henderson
★ Caleb McLaughlin .... Lucas Sinclair
★ Natalia Dyer .... Nancy Wheeler
★ Charlie Heaton .... Jonathan Byers

...( Dane Techniczne )...

Video
ID : 1
Format : AVC
Format/Info : Advanced Video Codec
Format profile : High@L3.1
Format settings : CABAC / 4 Ref Frames
Format settings, CABAC : Yes
Format settings, Reference fra : 4 frames
Codec ID : avc1
Codec ID/Info : Advanced Video Coding
Duration : 1 h 25 min
Bit rate mode : Variable
Bit rate : 998 kb/s
Maximum bit rate : 10 000 kb/s
Width : 960 pixels
Height : 540 pixels
Display aspect ratio : 16:9
Frame rate mode : Variable
Frame rate : 23.976 (24000/1001) FPS
Minimum frame rate : 11.987 FPS
Maximum frame rate : 90 000.000 FPS
Color space : YUV
Chroma subsampling : 4:2:0
Bit depth : 8 bits
Scan type : Progressive
Bits/(Pixel*Frame) : 0.080
Stream size : 614 MiB (44%)

Audio #1
ID : 2
Format : E-AC-3
Format/Info : Enhanced AC-3
Commercial name : Dolby Digital Plus
Codec ID : ec-3
Duration : 1 h 25 min
Bit rate mode : Constant
Bit rate : 640 kb/s
Channel(s) : 6 channels
Channel layout : L R C LFE Ls Rs
Sampling rate : 48.0 kHz
Frame rate : 31.250 FPS (1536 SPF)
Compression mode : Lossy
Stream size : 393 MiB (28%)
Language : Polish
Service kind : Complete Main
Default : Yes
Alternate group : 1

Audio #2
ID : 3
Format : E-AC-3
Format/Info : Enhanced AC-3
Commercial name : Dolby Digital Plus
Codec ID : ec-3
Duration : 1 h 25 min
Bit rate mode : Constant
Bit rate : 640 kb/s
Channel(s) : 6 channels
Channel layout : L R C LFE Ls Rs
Sampling rate : 48.0 kHz
Frame rate : 31.250 FPS (1536 SPF)
Compression mode : Lossy
Stream size : 393 MiB (28%)
Language : English
Service kind : Complete Main
Default : Yes
Alternate group : 2
 




Aby dodać komentarz należy się zalogować

Logowanie logowanie

Twoja ocena
Podobne torrenty
Nieznajomy / The Stranger (2022) [WEB-DL] [XviD-K83] [Lektor PL]    Stranger of Paradise: Final Fantasy Origin Wanderer Of The Rift [v1 22+DLC] 2022 [MULTI-ENG] [Razor1911] [ISO]    Nieznajomy / The Stranger 2022 [720p] [NF] [WEBRip] [DDP5 1] [x264][Lektor &amp Napisy PL]    Nieznajomy The Stranger (2022) [720p] [WEB-DL] [XviD] [DD5 1-K83] [Lektor PL]

Nieznajomy / The Stranger (2022) [WEB-DL] [XviD-K83] [Lektor PL]

Stranger of Paradise: Final Fantasy Origin Wanderer Of The Rift [v1.22+DLC] 2022 [MULTI-ENG] [Razor1911] [ISO]

Nieznajomy / The Stranger 2022 [720p] [NF] [WEBRip] [DDP5 1] [x264][Lektor & Napisy PL]

Nieznajomy  The Stranger (2022) [720p] [WEB-DL] [XviD] [DD5.1-K83] [Lektor PL]





sever 2023-01-22 13:20:14

dlaczego już nikt nie siedzi i nie udostępnia?


Shoutbox (zawartość shoutboxa widoczna dla zalogowanych użytkowników)


Żaden z plików nie znajduje się na serwerze. Torrenty są własnością użytkowników. Administrator serwisu nie może ponieść konsekwencji za to co użytkownicy wstawiają, lub za to co czynią na stronie. Nie możesz używać tego serwisu do rozpowszechniania lub ściągania materiałów do których nie masz odpowiednich praw lub licencji. Użytkownicy odpowiedzialni są za przestrzeganie tych zasad. profil torrentcity.pl