Ojciec panny młodej - Father of the Bride 2022 [10Bit HDR] [MULTi.2160p.WEB-DL.H265.AC.5.1] [Lektor PL & Napisy PL] [MINI 4K] torrent

 
Ojciec panny młodej - Father of the Bride  2022 [10Bit HDR] [MULTi.2160p.WEB-DL.H265.AC.5.1] [Lektor PL & Napisy PL] [MINI 4K] torrent


Pozycję wystawił:
Ishimura
Dodano:23.06.2022
Kategoria:DivX / XviD
Rozmiar:5.19 GB
Seedów:6
Peerów:0
Pobrań:106

Ojciec panny młodej - Father of the Bride 2022 [10Bit HDR]
[MULTi.2160p.WEB-DL.H265.AC.5.1] [Lektor PL & Napisy PL] [MINI 4K] torrent


Info
Produkcja: USA
Gatunek: Dramat, Fantasy, Komedia
Premiera: 16 czerwca 2022 (świat)
Reżyseria: Gary Alazraki
Scenariusz: Matt Lopez

Opis
Para z wieloletnim stażem, Billy (Andy Garcia) i Ingrid (Gloria Estefan), są zaskoczeni, gdy ich najstarsza córka Sofia (Adria
Arjona) przyjeżdża do Miami z wizytą i przedstawia im swojego nowego chłopaka, a właściwie już narzeczonego, Adana (Diego Boneta)
oraz ich plany na szybki ślub i dalsze życie wspólne życie w Meksyku.

Obsada
Adria Arjona ....
Isabela Merced ....
Andy Garcia ....
Enrique Murciano .... Junior
Chloe Fineman ....
Gloria Estefan ....

Dane Techniczne
Video
Format : HEVC
Format/Info : High Efficiency Video Coding
Format profile : Main 10L5Main
HDR format : SMPTE ST 2086, HDR10 compatible
Codec ID : V_MPEGH/ISO/HEVC
Duration : 1 h 57 min
Bit rate : 5 288 kb/s
Width : 3 840 pixels
Height : 2 160 pixels
Display aspect ratio : 16:9
Frame rate mode : Variable
Frame rate : 23.976 (24000/1001) FPS
Color space : YUV
Chroma subsampling : 4:2:0
Bit depth : 10 bits
Bits/(PixelFrame) : 0.027
Stream size : 4.34 GiB (84)
Title : Ojciec panny młodej (2022)
Default : Yes
Forced : No
Color range : Limited
Color primaries : BT.2020
Transfer characteristics : PQ
Matrix coefficients : BT.2020 non-constant
Mastering display color primaries : Display P3
Mastering display luminance : min: 0.0001 cd/m2, max: 1000 cd/m2
Maximum Content Light Level : 299 cd/m2
Maximum Frame-Average Light Level : 117 cd/m2

Audio #1
Format : AC-3
Format/Info : Audio Coding 3
Commercial name : Dolby Digital
Codec ID : A_AC3
Duration : 1 h 57 min
Bit rate mode : Constant
Bit rate : 384 kb/s
Channel(s) : 6 channels
Channel layout : L R C LFE Ls Rs
Sampling rate : 48.0 kHz
Frame rate : 31.250 FPS (1536 SPF)
Compression mode : Lossy
Stream size : 323 MiB (6)
Title : Lektor PL
Language : Polish
Service kind : Complete Main
Default : Yes
Forced : No

Audio #2
Format : AC-3
Format/Info : Audio Coding 3
Commercial name : Dolby Digital
Codec ID : A_AC3
Duration : 1 h 57 min
Bit rate mode : Constant
Bit rate : 640 kb/s
Channel(s) : 6 channels
Channel layout : L R C LFE Ls Rs
Sampling rate : 48.0 kHz
Frame rate : 31.250 FPS (1536 SPF)
Compression mode : Lossy
Stream size : 538 MiB (10)
Title : Original
Language : English
Service kind : Complete Main
Default : No
Forced : No

Text
Format : UTF-8
Codec ID : S_TEXT/UTF8
Codec ID/Info : UTF-8 Plain Text
Duration : 1 h 56 min
Bit rate : 72 b/s
Count of elements : 2059
Stream size : 61.9 KiB (0)
Title : Napisy PL
Language : Polish
Default : No
Forced : No
 


Aby dodać komentarz należy się zalogować

Logowanie logowanie

Twoja ocena
Podobne torrenty
Ojciec panny młodej Father of the Bride (2022) [480p] [WEB-DL] [XviD] [DD5 1-K83] [Lektor PL]    Ojciec panny młodej - Father of the Bride (2022) [HMAX WEB-DL] [AAC5 1 x264-P2P] [Lektor PL]    Ojciec panny młodej - Father of the Bride (2022) [1080p HMAX WEB-DL] [DD5 1 x264-P2P] [Lektor PL] DD 5 1    Ojciec panny młodej - Father of the Bride (2022) [480p] [WEB-DL] [XviD] [DD5 1-K83] [Lektor PL]

Ojciec panny młodej  Father of the Bride (2022) [480p] [WEB-DL] [XviD] [DD5.1-K83] [Lektor PL]

Ojciec panny młodej - Father of the Bride (2022) [HMAX.WEB-DL] [AAC5.1.x264-P2P] [Lektor PL]

Ojciec panny młodej - Father of the Bride (2022) [1080p.HMAX.WEB-DL] [DD5.1.x264-P2P] [Lektor PL] DD 5.1

Ojciec panny młodej - Father of the Bride (2022) [480p] [WEB-DL] [XviD] [DD5.1-K83] [Lektor PL]




Shoutbox (zawartość shoutboxa widoczna dla zalogowanych użytkowników)


Żaden z plików nie znajduje się na serwerze. Torrenty są własnością użytkowników. Administrator serwisu nie może ponieść konsekwencji za to co użytkownicy wstawiają, lub za to co czynią na stronie. Nie możesz używać tego serwisu do rozpowszechniania lub ściągania materiałów do których nie masz odpowiednich praw lub licencji. Użytkownicy odpowiedzialni są za przestrzeganie tych zasad. profil torrentcity.pl