Rogate ranczo 2004 [m1080p] [H265] [HEVC][MP3] [Dubbing PL] torrent

 
Rogate ranczo 2004 [m1080p] [H265] [HEVC][MP3] [Dubbing PL] torrent


Pozycję wystawił:
Ishimura
Dodano:12.05.2021
Kategoria:x264
Rozmiar:1.50 GB
Seedów:1
Peerów:0
Pobrań:10

Rogate ranczo 2004 [m1080p] [H265] [HEVC][MP3] [Dubbing PL] torrent


...( Info )...

Produkcja:
Gatunek: Array
Premiera:
Reżyseria: John Sanford
Scenariusz: John Sanford, Will Finn

...( Opis )...

Akcja filmu osadzona jest w realiach Dzikiego Zachodu. Pełną rozmaitych gatunków zwierząt rodzinną farmę zamieszkuje uboga wdowa Pearl wraz z córką. Ciąży na niej kredyt hipoteczny wysokości 1000 dolarów, którego nie ma możliwości w żaden sposób spłacić. Należące do jej stada krowy dowiadują się o wszystkim i zaczynają się obawiać, że zostaną sprzedane do lokalnej przetwórni mięsa, dlatego same próbują wymyślić plan zdobycia całej kwoty. Z pomocą przychodzi im zamieszkujący farmę koń Buck, który kiedyś należał do łowcy głów. Otóż słyszał on, że w pobliskim miasteczku przebywa bandyta o imieniu Slim, za którego wyznaczona jest nagroda wysokości 1000 dolarów.Wyjęty spod prawa Alameda Slim planuje przejęcie farmy Patch of Heaven prowadzonej przez Pearl. Poznawszy jego niecne plany trzy waleczne krowy Madzia, pani Calloway i Grace, postanawiają, w obronie swego dotychczasowego sposobu życia, ochronić farmę przed przestępcą. Do akcji wciągają też inne zwierzęta, między innego konia Bucka, który twierdzi, że doskonale zna... karate. Zamierzają schwytać poszukiwanego listem gończym bandytę i zdobyć wyznaczoną za niego nagrodę. Taki sam zamiar ma tajemniczy łowca nagród, Rico.

...( Obsada )...

Roseanne Barr - Madzia
Judi Dench - Pani Calloway
Jennifer Tilly - Grace
Cuba Gooding Jr. - Buck
Randy Quaid - Alameda Slim
Sam J. Levine - Bracia Wacuś
Charles Dennis - Rico
Charles Haid - Szaruś Nachałek
Carole Cook - Pearl Gesner
Joe Flaherty - Kozioł Hiob
Steve Buscemi - Wymok
Richard Riehle - Szeryf Sam
Lance LeGault - Bizon Damian
G.W. Bailey - Rusty
Patrick Warburton - Patrick
Estelle Harris - Kura Audrey

...( Dane Techniczne )...

Format : Matroska
Format version : Version 4
File size : 1.50 GiB
Duration : 1 h 16 min
Overall bit rate : 2 822 kb/s

Video
ID : 1
Format : HEVC
Format/Info : High Efficiency Video Coding
Format profile : MainL4Main
Codec ID : V_MPEGH/ISO/HEVC
Duration : 1 h 16 min
Bit rate : 2 638 kb/s
Width : 1 916 pixels
Height : 1 080 pixels
Display aspect ratio : 16:9
Frame rate mode : Constant
Frame rate : 23.976 (24000/1001) FPS
Color space : YUV
Chroma subsampling : 4:2:0
Bit depth : 8 bits
Bits/(PixelFrame) : 0.053
Stream size : 1.40 GiB (93)Video
ID : 1
Format : HEVC
Format/Info : High Efficiency Video Coding
Format profile : MainL4Main
Codec ID : V_MPEGH/ISO/HEVC
Duration : 1 h 16 min
Bit rate : 2 638 kb/s
Width : 1 916 pixels
Height : 1 080 pixels
Display aspect ratio : 16:9
Frame rate mode : Constant
Frame rate : 23.976 (24000/1001) FPS
Color space : YUV
Chroma subsampling : 4:2:0
Bit depth : 8 bits
Bits/(PixelFrame) : 0.053
Stream size : 1.40 GiB (93)

Audio
ID : 2
Format : MPEG Audio
Format version : Version 1
Format profile : Layer 3
Format settings : Joint stereo
Codec ID : A_MPEG/L3
Codec ID/Hint : MP3
Duration : 1 h 16 min
Bit rate mode : Constant
Bit rate : 128 kb/s
Channel(s) : 2 channels
Sampling rate : 48.0 kHz
Compression mode : Lossy
Delay relative to video : -23 ms
Stream size : 69.8 MiB (5)
Title : Stereo
Writing library : LAME3.100
Language : Polish
 


Aby dodać komentarz należy się zalogować

Logowanie logowanie

Twoja ocena
Podobne torrenty
Surogaci Surrogates (2009) [BRRip] [480p] [XviD] [AC3-LTN] [Lektor PL]    Surogatka - A Surrogate's Nightmare (2017) [480p] [HDTV] [XViD] [AC3-H1] [Lektor PL]    Surogatka - A Surrogate's Nightmare *2017* [HDTV] [XviD-GR4PE] [Lektor PL]    Rogate Ranczo - Home on the Range 2004 [DVDRip XviD][Dubbing PL]

Surogaci  Surrogates (2009) [BRRip] [480p] [XviD] [AC3-LTN] [Lektor PL]

Surogatka - A Surrogate's Nightmare (2017) [480p] [HDTV] [XViD] [AC3-H1] [Lektor PL]

Surogatka - A Surrogate's Nightmare *2017* [HDTV] [XviD-GR4PE] [Lektor PL]

Rogate Ranczo - Home on the Range 2004 [DVDRip.XviD][Dubbing PL]




Shoutbox (zawartość shoutboxa widoczna dla zalogowanych użytkowników)


Żaden z plików nie znajduje się na serwerze. Torrenty są własnością użytkowników. Administrator serwisu nie może ponieść konsekwencji za to co użytkownicy wstawiają, lub za to co czynią na stronie. Nie możesz używać tego serwisu do rozpowszechniania lub ściągania materiałów do których nie masz odpowiednich praw lub licencji. Użytkownicy odpowiedzialni są za przestrzeganie tych zasad. profil torrentcity.pl