Eurotrip 2004 [m1080p] [H265] [HEVC][MP3][Lektor PL] [mkv] torrent

 
Eurotrip 2004 [m1080p] [H265] [HEVC][MP3][Lektor PL] [mkv] torrent


Pozycję wystawił:
Ishimura
Dodano:10.05.2021
Kategoria:x264
Rozmiar:2.02 GB
Seedów:1
Peerów:0
Pobrań:0

Eurotrip 2004 [m1080p] [H265] [HEVC][MP3][Lektor PL] [mkv] torrent


...( Info )...

Produkcja: Czechy, USA
Gatunek: Komedia, Przygodowy
Premiera: 20 lutego 2004 (świat)
Reżyseria: David Mandel
Scenariusz: Alec Berg, David Mandel

...( Opis )...

Licealista Scott koresponduje przez internet z osobą z Europy, o pseudonimie Mieke, która pomaga mu otrzymywać najlepsze stopnie z języka niemieckiego, rozwiązując za niego zadania domowe. Gdy Mieke proponuje chłopakowi spotkanie na żywo, Scott początkowo panikuje, obawiając się, że ma do czynienia ze starszym mężczyzną o podejrzanych upodobaniach seksualnych. Kiedy okazuje się, że internetowy przyjaciel w rzeczywistości jest atrakcyjną dziewczyną, chłopak decyduje się odbyć podróż po Europie w towarzystwie swojego najlepszego przyjaciela Coopera i dwóch bliźniaków - Jenny i Jamie. Wycieczka po Europie, której celem jest Berlin, zamienia się w fascynującą i niezapomnianą przygodę.opis dystrybutora dvdZabawna historia grupki przyjaciół, która udała się do Europy. Scott ma konkretny cel, gdyż jedzie do dziewczyny z którą korespondował przez internet, a w której się zakochał. W tę podróż zabrał swojego najlepszego przyjaciela Coopera. Z niewielkim budżetem finansowym lecą do Londynu by z tamtąd udać się do Berlina, gdzie mieszka Mieke ukochana Scotta. Pociągiem dalej wyruszają do Paryża i tam spotykają dwójkę swych szkolnych przyjaciół parę bliźniaków Jenny i Jamiego. We czwórkę dalej kontynuują podróż do Berlina. Po drodze spotykają szereg dziwnych, śmiesznych ludzi i przeżywają przygodę swego życia zwiedzając po trochu różne Europejskie stolice. joker_twixopis użytkownikaScott po ukończeniu szkoły średniej dowiaduje się, że jego obecna dziewczyna Fiona z nim zrywa. Przygnębiony nieco tą niespodziewaną wiadomością wysyła e-maila do swego niemieckiego przyjaciela z którym koresponduje. Niespodziewanie jednak okazuje się, że domniemany przyjaciel z Berlina jest piękną niemiecką przyjaciółką. Scott odkrywa nagle, iż jest w niej zakochany.Wraz ze swym przyjacielem postanawia jechać do Berlina by się z nią spotkać.Wynajmują się jako pocztowi kurierzy i lecą do Londynu. Stamtąd udają się pociągiem do Paryża i kilku kolejnych stolic europejskich przeżywając po drodze szereg prześmiesznych, zakręconych i niezapomnianych przygód by wreszcie dotrzeć do celu, którym jest Berlin.

...( Obsada )...

Scott Mechlowicz .... Scott Thomas
Jacob Pitts .... Cooper Harris
Michelle Trachtenberg .... Jenny
Travis Wester .... Janie
Jessica Boehrs .... Mieke
Kristin Kreuk .... Fiona
Cathy Meils .... Pani Thomas
Nial Iskhakov .... Bert

...( Dane Techniczne )...

Format : Matroska
Format version : Version 4
File size : 2.02 GiB
Duration : 1 h 30 min
Overall bit rate : 3 216 kb/s

Video
ID : 1
Format : HEVC
Format/Info : High Efficiency Video Coding
Format profile : MainL4Main
Codec ID : V_MPEGH/ISO/HEVC
Duration : 1 h 30 min
Bit rate : 3 086 kb/s
Width : 1 920 pixels
Height : 1 080 pixels
Display aspect ratio : 16:9
Frame rate mode : Constant
Frame rate : 23.976 (24000/1001) FPS
Color space : YUV
Chroma subsampling : 4:2:0
Bit depth : 8 bits
Bits/(PixelFrame) : 0.062
Stream size : 1.94 GiB (96)

Audio
ID : 2
Format : MPEG Audio
Format version : Version 1
Format profile : Layer 3
Format settings : Joint stereo
Codec ID : A_MPEG/L3
Codec ID/Hint : MP3
Duration : 1 h 29 min
Bit rate mode : Constant
Bit rate : 128 kb/s
Channel(s) : 2 channels
Sampling rate : 48.0 kHz
Frame rate : 41.667 FPS (1152 SPF)
Compression mode : Lossy
Stream size : 82.4 MiB (4)
Title : Stereo
Writing library : LAME3.100
Language : Polish
Default : Yes
Forced : No

Text
ID : 3
Format : ASS
Codec ID : S_TEXT/ASS
Codec ID/Info : Advanced Sub Station Alpha
Duration : 1 h 26 min
Bit rate : 101 b/s
Count of elements : 1111
Compression mode : Lossless
Stream size : 64.4 KiB (0)
Language : Polish
 


Aby dodać komentarz należy się zalogować

Logowanie logowanie

Twoja ocena
Podobne torrenty
Eurotrip EuroTrip (2004) [DVDRip] [XviD] [Lektor PL]    Eurotrip (2004) [WEB-DL] [x264] [720p] [Lektor PL] [MPF]    Eurotrip EuroTrip [2004] [BRRip XviD] [GR4PE] [Lektor PL]    Eurotrip / EuroTrip [2004] [720p] [BDRip] [XviD] [AC3 ELiTE] [Lektor PL]

Eurotrip  EuroTrip (2004) [DVDRip] [XviD] [Lektor PL]

Eurotrip (2004) [WEB-DL] [x264] [720p] [Lektor PL] [MPF]

Eurotrip  EuroTrip [2004] [BRRip XviD] [GR4PE] [Lektor PL]

Eurotrip / EuroTrip [2004] [720p] [BDRip] [XviD] [AC3 ELiTE] [Lektor PL]




Shoutbox (zawartość shoutboxa widoczna dla zalogowanych użytkowników)


Żaden z plików nie znajduje się na serwerze. Torrenty są własnością użytkowników. Administrator serwisu nie może ponieść konsekwencji za to co użytkownicy wstawiają, lub za to co czynią na stronie. Nie możesz używać tego serwisu do rozpowszechniania lub ściągania materiałów do których nie masz odpowiednich praw lub licencji. Użytkownicy odpowiedzialni są za przestrzeganie tych zasad. profil torrentcity.pl