Labirynt [1986] [m1080p] [H265] [HEVC][MP3] [Lektor PL] torrent

 
Labirynt [1986] [m1080p] [H265] [HEVC][MP3] [Lektor PL]  torrent


Pozycję wystawił:
Ishimura
Dodano:10.05.2021
Kategoria:x264
Rozmiar:2.55 GB
Seedów:2
Peerów:0
Pobrań:2

Labirynt [1986] [m1080p] [H265] [HEVC][MP3] [Lektor PL] torrent


...( Info )...

Produkcja: USA, Wielka Brytania
Gatunek: Fantasy, Przygodowy
Premiera: 21 lipca 2012 (Polska), 27 czerwca 1986 (świat)
Reżyseria: Jim Henson
Scenariusz: Terry Jones

...( Opis )...

Sarah musi opiekować się swoim braciszkiem. Nie jest za bardzo zadowolona i wyraża życzenie, żeby jej brat Toby zmienił się w goblina. Okazuje się, że życzenie to się ziści, tak przynajmniej twierdzi król Goblinów Jareth. Żeby uratować brata, musi zmierzyć się z królem, ale nie jest to takie łatwe, gdyż jego posiadłość jest otoczona ogromnym labiryntem, a czasu nie ma pod dostatkiem.

...( Obsada )...

Jennifer Connelly .... Sarah
David Bowie .... Jareth
Toby Froud .... Toby
Shelley Thompson .... Macocha
Christopher Malcolm .... Ojciec
Natalie Finland .... Wróżka
Shari Weiser .... Hoggle
Brian Henson .... Hoggle / głos goblina

...( Dane Techniczne )...

Format : Matroska
Format version : Version 4
File size : 2.55 GiB
Duration : 1 h 38 min
Overall bit rate : 3 696 kb/s

Video
ID : 1
Format : HEVC
Format/Info : High Efficiency Video Coding
Format profile : MainL4Main
Codec ID : V_MPEGH/ISO/HEVC
Duration : 1 h 38 min
Bit rate : 3 558 kb/s
Width : 1 920 pixels
Height : 800 pixels
Display aspect ratio : 2.40:1
Frame rate mode : Constant
Frame rate : 23.976 (24000/1001) FPS
Color space : YUV
Chroma subsampling : 4:2:0
Bit depth : 8 bits
Bits/(PixelFrame) : 0.097
Stream size : 2.45 GiB (96)

Audio
ID : 2
Format : MPEG Audio
Format version : Version 1
Format profile : Layer 3
Format settings : Joint stereo / MS Stereo
Codec ID : A_MPEG/L3
Codec ID/Hint : MP3
Duration : 1 h 38 min
Bit rate mode : Constant
Bit rate : 128 kb/s
Channel(s) : 2 channels
Sampling rate : 48.0 kHz
Frame rate : 41.667 FPS (1152 SPF)
Compression mode : Lossy
Stream size : 90.4 MiB (3)
Title : Stereo
Writing library : LAME3.100rW
Language : Polish
Default : Yes
Forced : No

Text
ID : 3
Format : PGS
Muxing mode : zlib
Codec ID : S_HDMV/PGS
Codec ID/Info : Picture based subtitle format used on BDs/HD-DVDs
Duration : 1 h 33 min
Bit rate : 22.9 kb/s
Count of elements : 2071
Stream size : 15.3 MiB (1)
Language : Polish
 


Aby dodać komentarz należy się zalogować

Logowanie logowanie

Twoja ocena
Podobne torrenty
Labirynt fauna - Pan&#39s Labyrinth (2006)[DVDRip XviD] [AC-3] [Lektor PL]    Więzień labiryntu: Próby ognia Maze Runner: The Scorch Trials (2015)PL 480p] [BDRip] [AC3 x264-CoLO] [Lektor PL]    Labirynt fauna El Laberinto del fauno (2006) [HDDVDRip 480p] [XviD] [AC3-LTN] [Lektor PL]    Więzień labiryntu: Lek na śmierć Maze Runner: The Death Cure (2018) PLDUB BDRip] [XviD-KiT] [Dubbing PL]

Labirynt fauna - Pan's Labyrinth  (2006)[DVDRip.XviD] [AC-3] [Lektor PL]

Więzień labiryntu: Próby ognia  Maze Runner: The Scorch Trials (2015)PL.480p] [BDRip] [AC3.x264-CoLO] [Lektor PL]

Labirynt fauna  El Laberinto del fauno (2006) [HDDVDRip.480p] [XviD] [AC3-LTN] [Lektor PL]

Więzień labiryntu: Lek na śmierć  Maze Runner: The Death Cure (2018) PLDUB.BDRip] [XviD-KiT] [Dubbing PL]




Shoutbox (zawartość shoutboxa widoczna dla zalogowanych użytkowników)


Żaden z plików nie znajduje się na serwerze. Torrenty są własnością użytkowników. Administrator serwisu nie może ponieść konsekwencji za to co użytkownicy wstawiają, lub za to co czynią na stronie. Nie możesz używać tego serwisu do rozpowszechniania lub ściągania materiałów do których nie masz odpowiednich praw lub licencji. Użytkownicy odpowiedzialni są za przestrzeganie tych zasad. profil torrentcity.pl