Jack.Frost.1998.[m1080p][WEB-DL] [H265] [HEVC][MP3][LEKTOR PL] torrent

 
Jack.Frost.1998.[m1080p][WEB-DL] [H265] [HEVC][MP3][LEKTOR PL] torrent


Pozycję wystawił:
Ishimura
Dodano:10.05.2021
Kategoria:x264
Rozmiar:2.72 GB
Seedów:0
Peerów:0
Pobrań:10

Jack.Frost.1998.[m1080p][WEB-DL] [H265] [HEVC][MP3][LEKTOR PL] torrent


...( Info )...

Produkcja:
Gatunek: Array
Premiera:
Reżyseria: Troy Miller
Scenariusz: Jonathan Roberts, Jeff Cesario

1.Lektor (Jacek Brzostyński)
2.Lektor (Stanisław Olejniczak)

...( Opis )...

Jack Frost (Michael Keaton) jest liderem zespołu rockowego Jack Frost Band. Grupa wciąż czeka na swój największy sukces, póki co muszą dużo koncertować. Jack ciągle jest więc w trasie zaniedbując nieco swą piękną żonę (Kelly Preston) i 11-letniego syna Charlieego (Joseph Cross). Pewnego dnia spiesząc się na wigilijną kolację Jack ginie w wypadku samochodowym. Charlie i jego matka nie potrafią sobie poradzić z tą stratą. Dokładnie rok później, w przeddzień świąt Bożego Narodzenia, Jack wraca jako... śniegowy bałwan.

...( Obsada )...

Michael Keaton .... Jack Frost
Kelly Preston .... Gabby Frost
Joseph Cross .... Charlie Frost
Mark Addy .... Mac MacArthur
Andrew Lawrence .... Tuck Gronic
Eli Marienthal .... Spencer
Will Rothhaar .... Dennis
Mika Boorem .... Natalie

...( Dane Techniczne )...

Format : Matroska
Format version : Version 4
File size : 2.72 GiB
Duration : 1 h 41 min
Overall bit rate : 3 846 kb/s

Video
ID : 1
Format : HEVC
Format/Info : High Efficiency Video Coding
Format profile : MainL4Main
Codec ID : V_MPEGH/ISO/HEVC
Duration : 1 h 41 min
Bit rate : 3 514 kb/s
Width : 1 916 pixels
Height : 800 pixels
Display aspect ratio : 2.40:1
Frame rate mode : Constant
Frame rate : 23.976 (24000/1001) FPS
Color space : YUV
Chroma subsampling : 4:2:0
Bit depth : 8 bits
Bits/(PixelFrame) : 0.096
Stream size : 2.49 GiB (91)

Audio #1
ID : 2
Format : MPEG Audio
Format version : Version 1
Format profile : Layer 3
Format settings : Joint stereo / MS Stereo
Codec ID : A_MPEG/L3
Codec ID/Hint : MP3
Duration : 1 h 41 min
Bit rate mode : Constant
Bit rate : 128 kb/s
Channel(s) : 2 channels
Sampling rate : 48.0 kHz
Compression mode : Lossy
Delay relative to video : -23 ms
Stream size : 92.7 MiB (3)
Title : PL (Jacek Brzostyński)
Language : Polish
Default : Yes
Forced : No

Audio #2
ID : 3
Format : MPEG Audio
Format version : Version 1
Format profile : Layer 3
Format settings : Joint stereo / MS Stereo
Codec ID : A_MPEG/L3
Codec ID/Hint : MP3
Duration : 1 h 41 min
Bit rate mode : Constant
Bit rate : 128 kb/s
Channel(s) : 2 channels
Sampling rate : 48.0 kHz
Compression mode : Lossy
Delay relative to video : -23 ms
Stream size : 92.7 MiB (3)
Title : PL (Stanisław Olejniczak)
Writing library : LAME
Language : Polish
Default : No
Forced : No

Text #1
ID : 4
Format : ASS
Codec ID : S_TEXT/ASS
Codec ID/Info : Advanced Sub Station Alpha
Duration : 3 min 0 s
Compression mode : Lossless
Title : PL
Language : Polish
Default : No
Forced : No

Text #2
ID : 5
Format : ASS
Codec ID : S_TEXT/ASS
Codec ID/Info : Advanced Sub Station Alpha
Compression mode : Lossless
Language : Polish
 


Aby dodać komentarz należy się zalogować

Logowanie logowanie

Twoja ocena
Shoutbox (zawartość shoutboxa widoczna dla zalogowanych użytkowników)


Żaden z plików nie znajduje się na serwerze. Torrenty są własnością użytkowników. Administrator serwisu nie może ponieść konsekwencji za to co użytkownicy wstawiają, lub za to co czynią na stronie. Nie możesz używać tego serwisu do rozpowszechniania lub ściągania materiałów do których nie masz odpowiednich praw lub licencji. Użytkownicy odpowiedzialni są za przestrzeganie tych zasad. profil torrentcity.pl