Mrówka Z - Antz.1998 [m1080p][WEB-DL] [H265] [HEVC][MP3][Dubbing PL] [MKV] torrent

 
Mrówka Z - Antz.1998 [m1080p][WEB-DL] [H265] [HEVC][MP3][Dubbing PL] [MKV] torrent


Pozycję wystawił:
Ishimura
Dodano:10.05.2021
Kategoria:x264
Rozmiar:1.57 GB
Seedów:2
Peerów:0
Pobrań:10

Mrówka Z - Antz.1998 [m1080p][WEB-DL] [H265] [HEVC][MP3][Dubbing
PL] [MKV] torrent


...( Info )...

Produkcja:
Gatunek: Array
Premiera:
Reżyseria: Eric Darnell
Scenariusz: Paul Weitz, Todd Alcott

...( Opis )...

Mrówka Z-4195 jest zwykłym robotnikiem, żyjącym w miliardowej, podzielonej na kasty społeczności. Pewnego dnia zakochuje się w pięknej księżniczce Bali. Mimo, że sytuacja wydaje się beznadziejna, postanawia za wszelką cenę zdobyć ukochaną. Korzysta przy tym z pomocy największego przyjaciela księżniczki, Weavera...

...( Obsada )...

Z-4195 Woody Allen
Księżniczka Bala Sharon Stone
Azteczka Jennifer Lopez
Tkaczak Sylvester Stallone
Chip Dan Aykroyd
Generał Żuwaczka Gene Hackman
Pułkownik Krajak Christopher Walken
Barbatus Danny Glover
Królowa Anne Bancroft

...( Dane Techniczne )...

Format : Matroska
Format version : Version 4
File size : 1.57 GiB
Duration : 1 h 23 min
Overall bit rate mode : Variable
Overall bit rate : 2 698 kb/s

Video
ID : 1
Format : HEVC
Format/Info : High Efficiency Video Coding
Format profile : MainL4Main
Codec ID : V_MPEGH/ISO/HEVC
Duration : 1 h 23 min
Bit rate : 2 516 kb/s
Width : 1 920 pixels
Height : 1 040 pixels
Display aspect ratio : 1.85:1
Frame rate mode : Constant
Frame rate : 23.976 (24000/1001) FPS
Color space : YUV
Chroma subsampling : 4:2:0
Bit depth : 8 bits
Bits/(PixelFrame) : 0.053
Stream size : 1.46 GiB (93)

Audio
ID : 2
Format : Vorbis
Format settings, Floor : 1
Codec ID : A_VORBIS
Duration : 1 h 23 min
Bit rate mode : Variable
Bit rate : 128 kb/s
Channel(s) : 2 channels
Sampling rate : 48.0 kHz
Compression mode : Lossy
Stream size : 76.3 MiB (5)
Title : Stereo
Writing application : HandBrake
Writing library : libVorbis (Now 100 fewer shells) (20180316 (Now 100 fewer shells))
Language : polski
 


Aby dodać komentarz należy się zalogować

Logowanie logowanie

Twoja ocena
Shoutbox (zawartość shoutboxa widoczna dla zalogowanych użytkowników)


Żaden z plików nie znajduje się na serwerze. Torrenty są własnością użytkowników. Administrator serwisu nie może ponieść konsekwencji za to co użytkownicy wstawiają, lub za to co czynią na stronie. Nie możesz używać tego serwisu do rozpowszechniania lub ściągania materiałów do których nie masz odpowiednich praw lub licencji. Użytkownicy odpowiedzialni są za przestrzeganie tych zasad. profil torrentcity.pl