Poznaj moich Spartan [2008] [m1080p] [H265] [HEVC][MP3] [Lektor PL] [MKV] torrent

 
Poznaj moich Spartan [2008] [m1080p] [H265] [HEVC][MP3]  [Lektor PL] [MKV] torrent


Pozycję wystawił:
Ishimura
Dodano:10.05.2021
Kategoria:x264
Rozmiar:1.95 GB
Seedów:1
Peerów:0
Pobrań:10

Poznaj moich Spartan [2008] [m1080p] [H265] [HEVC][MP3] [Lektor
PL] [MKV] torrent


...( Info )...

Produkcja: USA
Gatunek: Komedia
Premiera: 4 kwietnia 2008 (Polska), 24 stycznia 2008 (świat)
Reżyseria: Aaron Seltzer
Scenariusz: Jason Friedberg, Aaron Seltzer

...( Opis )...

Odważny Leonidas, postanawia prowadzić grupę swoich 13 odważnych Spartan przeciwko wrogim Persom, którym dowodzi otyły Xerxes. Do perskich żołnierzy należą m.in. garbata Paris Hilton, Rocky Balboa i Ghost Rider. Jest to film twórców Komedii romantycznej i Wielkiego Kina. Tym razem parodiują oni takie produkcje jak: 300, Spider-Man 3, Transformers, Casino Royale i popularny w Stanach Zjednoczonych program American Idol.Kolejny film twórców Epic Movie i Date Movie. Cały film jest oparty na obrazie 300, ale są też parodie takich produkcji jak You Got Served, Brzydula Betty, Spider-Man 3, Transformers, Ghost Rider, Happy Feet. Nie obeszło się bez popularnych programów jak: Idol, Grasz czy nie grasz, Taniec z gwiazdami. W filmie pojawiają się sławne postacie, między innymi Paris Hilton, Britney Spears, Lindsay Lohan, Donald Trump, Angelina Jolie, Brad Pitt, Kevin Federline i prezydent Bush. skur3bykopis użytkownikaPrzygotuj się na walkę... ze łzami od śmiechu, którą gwarantuje wściekle śmieszne wydanie Poznaj moich Spartan Jama śmierci zawierające bardziej okrutne, bardziej ordynarne PEŁNE sekwencje nie pokazywane w kinach oraz całą armię komicznych, historycznych materiałów dodatkowych Bitwa rozpoczyna się w momencie, w którym uzbrojony w skórzaną bieliznę i pelerynę heroiczny Leonidas przewodzi trzynastoosobowej grupie wojowników - policzyliśmy, 13 -w walce o obronę rodzimych ziem przeciwko najeźdźcom z Persji, wśród których są Ghost Rider, Rocky Balboa, Transformersi i garbata Paris Hilton

...( Obsada )...

Sean Maguire .... Leonidas
Carmen Electra .... Królowa Margo
Ken Davitian .... Kserkses
Kevin Sorbo .... Kapitan
Diedrich Bader .... Zdradiusz
Method Man .... Perski emisariusz
Jareb Dauplaise .... Dilio
Travis Van Winkle .... Sonio

...( Dane Techniczne )...

Format : Matroska
Format version : Version 4
File size : 1.95 GiB
Duration : 1 h 26 min
Overall bit rate : 3 224 kb/s

Video
ID : 1
Format : HEVC
Format/Info : High Efficiency Video Coding
Format profile : MainL4Main
Codec ID : V_MPEGH/ISO/HEVC
Duration : 1 h 26 min
Bit rate : 3 032 kb/s
Width : 1 912 pixels
Height : 1 032 pixels
Display aspect ratio : 1.85:1
Frame rate mode : Constant
Frame rate : 23.976 (24000/1001) FPS
Color space : YUV
Chroma subsampling : 4:2:0
Bit depth : 8 bits
Bits/(PixelFrame) : 0.064
Stream size : 1.83 GiB (94)

Audio
ID : 2
Format : MPEG Audio
Format version : Version 1
Format profile : Layer 3
Format settings : Joint stereo / MS Stereo
Codec ID : A_MPEG/L3
Codec ID/Hint : MP3
Duration : 1 h 26 min
Bit rate mode : Constant
Bit rate : 128 kb/s
Channel(s) : 2 channels
Sampling rate : 48.0 kHz
Compression mode : Lossy
Stream size : 79.1 MiB (4)
Title : Stereo
Writing library : LAME3.100
Language : Polish
Default : Yes
Forced : No

Text
ID : 3
Format : PGS
Codec ID : S_HDMV/PGS
Codec ID/Info : Picture based subtitle format used on BDs/HD-DVDs
Language : Polish
 


Aby dodać komentarz należy się zalogować

Logowanie logowanie

Twoja ocena
Podobne torrenty
Błękitny umysł Poznaj nieznane Myśl na odwrót Działaj na opak - Klaudia Pingot [PL][pdf,epub,azw3]    Philip Houston, Mike Floyd, Susan Carnicero - Poznaj prawdę Agenci CIA zdradzą ci, jak przekonać każdego, by powiedział wszystko [PL] [pdf,mobi,epub,azw3]    Klaudia Pingot - Błękitny umysł Myśl na odwrót, działaj na opak, poznaj nieznane [PL] [PDF]    Poznaj naszą rodzinkę - Little Fockers 2010 [480p WEB-DL Xvid][Lektor PL]

Błękitny umysł. Poznaj nieznane. Myśl na odwrót. Działaj na opak - Klaudia Pingot. [PL][pdf,epub,azw3]

Philip Houston, Mike Floyd, Susan Carnicero - Poznaj prawdę. Agenci CIA zdradzą ci, jak przekonać każdego, by powiedział wszystko. [PL] [pdf,mobi,epub,azw3]

Klaudia Pingot - Błękitny umysł. Myśl na odwrót, działaj na opak, poznaj nieznane [PL] [PDF]

Poznaj naszą rodzinkę - Little Fockers 2010 [480p.WEB-DL.Xvid][Lektor PL]




Shoutbox (zawartość shoutboxa widoczna dla zalogowanych użytkowników)


Żaden z plików nie znajduje się na serwerze. Torrenty są własnością użytkowników. Administrator serwisu nie może ponieść konsekwencji za to co użytkownicy wstawiają, lub za to co czynią na stronie. Nie możesz używać tego serwisu do rozpowszechniania lub ściągania materiałów do których nie masz odpowiednich praw lub licencji. Użytkownicy odpowiedzialni są za przestrzeganie tych zasad. profil torrentcity.pl