Amerykańscy Bogowie - American Gods 2019 [S02] [1080p] [AMZN] [WEB-DL] [DDP5.1] [X264] [NTb] [Napisy PL] torrent

 
Amerykańscy Bogowie - American Gods 2019 [S02] [1080p] [AMZN] [WEB-DL] [DDP5.1] [X264] [NTb] [Napisy PL] torrent


Pozycję wystawił:
Ishimura
Dodano:13.01.2021
Kategoria:Seriale
Rozmiar:27.80 GB
Seedów:0
Peerów:0
Pobrań:0

Amerykańscy Bogowie - American Gods 2019 [S02] [1080p] [AMZN]
[WEB-DL] [DDP5.1] [X264] [NTb] [Napisy PL] torrent


http://mid.images.nitro.to/nitro.to_amerykanscy_bogowie_-_american_gods_2019_s02_1080p_amzn_web-dl_ddp5-1_x264_ntb_napisy_pl.mid_1312__18167331.jpeg

Info

Produkcja: USA
Gatunek: Dramat, Fantasy
Twórca: Bryan Fuller
Platforma: Amazon, STARZ
Premiera: 10 stycznia 2021

Opis

Próba ucieczki Cienia od Pana Wednesdaya i nadchodząca wojna zostaje udaremniona przez tajemnice Bogów - zarówno Starych, jak i Nowych.

Obsada

Ricky Whittle .... Cień Moon
Ian McShane .... Pan Wednesday
Emily Browning .... Laura Moon / Essie Macgowan
Pablo Schreiber .... Szalony Sweeney
Yetide Badaki .... Bilquis
Bruce Langley .... Technochłopiec
Crispin Glover .... Pan World
Orlando Jones .... Pan Nancy

https://www.youtube.com/watch?v=ooC0Rn5qXHA

Dane Techniczne

Video
ID : 1
Format : AVC
Format/Info : Advanced Video Codec
Format profile : HighL4
Format settings : CABAC / 4 Ref Frames
Format settings, CABAC : Yes
Format settings, ReFrames : 4 frames
Codec ID : V_MPEG4/ISO/AVC
Duration : 53 min 53 s
Bit rate mode : Constant
Bit rate : 9 031 kb/s
Nominal bit rate : 10 000 kb/s
Width : 1 920 pixels
Height : 1 080 pixels
Display aspect ratio : 16:9
Frame rate mode : Constant
Frame rate : 23.976 (24000/1001) FPS
Color space : YUV
Chroma subsampling : 4:2:0
Bit depth : 8 bits
Scan type : Progressive
Bits/(PixelFrame) : 0.182
Stream size : 3.40 GiB (93)
Default : Yes
Forced : No
Color range : Limited
Color primaries : BT.709
Transfer characteristics : BT.709
Matrix coefficients : BT.709

Audio
ID : 2
Format : E-AC-3
Format/Info : Enhanced AC-3
Commercial name : Dolby Digital Plus
Codec ID : A_EAC3
Duration : 53 min 53 s
Bit rate mode : Constant
Bit rate : 640 kb/s
Channel(s) : 6 channels
Channel layout : L R C LFE Ls Rs
Sampling rate : 48.0 kHz
Frame rate : 31.250 FPS (1536 SPF)
Compression mode : Lossy
Stream size : 247 MiB (7)
Language : English
Service kind : Complete Main
Default : Yes
Forced : No

Text #1
ID : 3
Format : UTF-8
Codec ID : S_TEXT/UTF8
Codec ID/Info : UTF-8 Plain Text
Duration : 53 min 34 s
Bit rate : 51 b/s
Count of elements : 652
Stream size : 20.1 KiB (0)
Language : English
Default : No
Forced : No

Text #2
ID : 4
Format : UTF-8
Codec ID : S_TEXT/UTF8
Codec ID/Info : UTF-8 Plain Text
Duration : 53 min 34 s
Bit rate : 54 b/s
Count of elements : 713
Stream size : 21.3 KiB (0)
Title : SDH
Language : English
Default : No
Forced : No

Text #3
ID : 5
Format : UTF-8
Codec ID : S_TEXT/UTF8
Codec ID/Info : UTF-8 Plain Text
Duration : 53 min 40 s
Bit rate : 62 b/s
Count of elements : 542
Stream size : 24.6 KiB (0)
Language : Arabic
Default : No
Forced : No

Text #4
ID : 6
Format : UTF-8
Codec ID : S_TEXT/UTF8
Codec ID/Info : UTF-8 Plain Text
Duration : 53 min 44 s
Bit rate : 113 b/s
Count of elements : 540
Stream size : 44.5 KiB (0)
Language : Bengali
Default : No
Forced : No

Text #5
ID : 7
Format : UTF-8
Codec ID : S_TEXT/UTF8
Codec ID/Info : UTF-8 Plain Text
Duration : 51 min 34 s
Bit rate : 45 b/s
Count of elements : 535
Stream size : 17.3 KiB (0)
Language : Catalan
Default : No
Forced : No

Text #6
ID : 8
Format : UTF-8
Codec ID : S_TEXT/UTF8
Codec ID/Info : UTF-8 Plain Text
Duration : 51 min 38 s
Bit rate : 45 b/s
Count of elements : 582
Stream size : 17.1 KiB (0)
Language : Danish
Default : No
Forced : No

Text #7
ID : 9
Format : UTF-8
Codec ID : S_TEXT/UTF8
Codec ID/Info : UTF-8 Plain Text
Duration : 53 min 44 s
Bit rate : 43 b/s
Count of elements : 526
Stream size : 17.3 KiB (0)
Language : German
Default : No
Forced : No

Text #8
ID : 10
Format : UTF-8
Codec ID : S_TEXT/UTF8
Codec ID/Info : UTF-8 Plain Text
Duration : 51 min 34 s
Bit rate : 42 b/s
Count of elements : 559
Stream size : 15.9 KiB (0)
Language : Spanish
Default : No
Forced : No

Text #9
ID : 11
Format : UTF-8
Codec ID : S_TEXT/UTF8
Codec ID/Info : UTF-8 Plain Text
Duration : 51 min 34 s
Bit rate : 42 b/s
Count of elements : 559
Stream size : 15.9 KiB (0)
Language : Spanish
Default : No
Forced : No

Text #10
ID : 12
Format : UTF-8
Codec ID : S_TEXT/UTF8
Codec ID/Info : UTF-8 Plain Text
Duration : 51 min 38 s
Bit rate : 46 b/s
Count of elements : 594
Stream size : 17.5 KiB (0)
Language : Finnish
Default : No
Forced : No

Text #11
ID : 13
Format : UTF-8
Codec ID : S_TEXT/UTF8
Codec ID/Info : UTF-8 Plain Text
Duration : 53 min 44 s
Bit rate : 41 b/s
Count of elements : 582
Stream size : 16.3 KiB (0)
Language : French
Default : No
Forced : No

Text #12
ID : 14
Format : UTF-8
Codec ID : S_TEXT/UTF8
Codec ID/Info : UTF-8 Plain Text
Duration : 51 min 38 s
Bit rate : 60 b/s
Count of elements : 598
Stream size : 22.9 KiB (0)
Language : Hebrew
Default : No
Forced : No

Text #13
ID : 15
Format : UTF-8
Codec ID : S_TEXT/UTF8
Codec ID/Info : UTF-8 Plain Text
Duration : 53 min 44 s
Bit rate : 111 b/s
Count of elements : 541
Stream size : 44.0 KiB (0)
Language : Hindi
Default : No
Forced : No

Text #14
ID : 16
Format : UTF-8
Codec ID : S_TEXT/UTF8
Codec ID/Info : UTF-8 Plain Text
Duration : 53 min 44 s
Bit rate : 43 b/s
Count of elements : 534
Stream size : 17.1 KiB (0)
Language : Indonesian
Default : No
Forced : No

Text #15
ID : 17
Format : UTF-8
Codec ID : S_TEXT/UTF8
Codec ID/Info : UTF-8 Plain Text
Duration : 53 min 44 s
Bit rate : 48 b/s
Count of elements : 490
Stream size : 19.2 KiB (0)
Language : Italian
Default : No
Forced : No

Text #16
ID : 18
Format : UTF-8
Codec ID : S_TEXT/UTF8
Codec ID/Info : UTF-8 Plain Text
Duration : 53 min 44 s
Bit rate : 45 b/s
Count of elements : 538
Stream size : 18.0 KiB (0)
Language : Korean
Default : No
Forced : No

Text #17
ID : 19
Format : UTF-8
Codec ID : S_TEXT/UTF8
Codec ID/Info : UTF-8 Plain Text
Duration : 53 min 44 s
Bit rate : 107 b/s
Count of elements : 540
Stream size : 42.1 KiB (0)
Language : Marathi
Default : No
Forced : No

Text #18
ID : 20
Format : UTF-8
Codec ID : S_TEXT/UTF8
Codec ID/Info : UTF-8 Plain Text
Duration : 51 min 37 s
Bit rate : 41 b/s
Count of elements : 594
Stream size : 15.9 KiB (0)
Language : Norwegian Bokmal
Default : No
Forced : No

Text #19
ID : 21
Format : UTF-8
Codec ID : S_TEXT/UTF8
Codec ID/Info : UTF-8 Plain Text
Duration : 53 min 44 s
Bit rate : 44 b/s
Count of elements : 531
Stream size : 17.5 KiB (0)
Language : Dutch
Default : No
Forced : No

Text #20
ID : 22
Format : UTF-8
Codec ID : S_TEXT/UTF8
Codec ID/Info : UTF-8 Plain Text
Duration : 53 min 44 s
Bit rate : 41 b/s
Count of elements : 471
Stream size : 16.5 KiB (0)
Language : Polish
Default : No
Forced : No

Text #21
ID : 23
Format : UTF-8
Codec ID : S_TEXT/UTF8
Codec ID/Info : UTF-8 Plain Text
Duration : 53 min 44 s
Bit rate : 42 b/s
Count of elements : 535
Stream size : 16.9 KiB (0)
Language : Portuguese
Default : No
Forced : No

Text #22
ID : 24
Format : UTF-8
Codec ID : S_TEXT/UTF8
Codec ID/Info : UTF-8 Plain Text
Duration : 53 min 44 s
Bit rate : 42 b/s
Count of elements : 535
Stream size : 16.9 KiB (0)
Language : Portuguese
Default : No
Forced : No

Text #23
ID : 25
Format : UTF-8
Codec ID : S_TEXT/UTF8
Codec ID/Info : UTF-8 Plain Text
Duration : 53 min 44 s
Bit rate : 72 b/s
Count of elements : 546
Stream size : 28.6 KiB (0)
Language : Russian
Default : No
Forced : No

Text #24
ID : 26
Format : UTF-8
Codec ID : S_TEXT/UTF8
Codec ID/Info : UTF-8 Plain Text
Duration : 51 min 38 s
Bit rate : 46 b/s
Count of elements : 583
Stream size : 17.5 KiB (0)
Language : Swedish
Default : No
Forced : No

Text #25
ID : 27
Format : UTF-8
Codec ID : S_TEXT/UTF8
Codec ID/Info : UTF-8 Plain Text
Duration : 51 min 38 s
Bit rate : 159 b/s
Count of elements : 603
Stream size : 60.2 KiB (0)
Language : Tamil
Default : No
Forced : No

Text #26
ID : 28
Format : UTF-8
Codec ID : S_TEXT/UTF8
Codec ID/Info : UTF-8 Plain Text
Duration : 53 min 44 s
Bit rate : 125 b/s
Count of elements : 540
Stream size : 49.5 KiB (0)
Language : Telugu
Default : No
Forced : No

Text #27
ID : 29
Format : UTF-8
Codec ID : S_TEXT/UTF8
Codec ID/Info : UTF-8 Plain Text
Duration : 53 min 44 s
Bit rate : 44 b/s
Count of elements : 523
Stream size : 17.6 KiB (0)
Language : Turkish
Default : No
Forced : No

Text #28
ID : 30
Format : UTF-8
Codec ID : S_TEXT/UTF8
Codec ID/Info : UTF-8 Plain Text
Duration : 51 min 40 s
Bit rate : 42 b/s
Count of elements : 599
Stream size : 16.0 KiB (0)
Language : Chinese
Default : No
Forced : No

Text #29
ID : 31
Format : UTF-8
Codec ID : S_TEXT/UTF8
Codec ID/Info : UTF-8 Plain Text
Duration : 51 min 40 s
Bit rate : 42 b/s
Count of elements : 599
Stream size : 16.0 KiB (0)
Language : Chinese
Default : No
Forced : No

Menu
00:00:00.000 : en:Amazon Original
00:00:06.000 : en:Previously On
00:02:22.000 : en:Opening Credits
00:03:53.000 : en:Now is a time for preparation
00:07:26.000 : en:Shadow doesn't know what to believe anymore
00:10:50.000 : en:What is the House On The Rock?
00:13:22.000 : en:Mr. World has a request
00:14:29.000 : en:Arrival at Castle Rock
00:18:25.000 : en:Salim is following his heart
00:19:23.000 : en:A fortune reveals everything and nothing
00:23:08.000 : en:Mr. Wednesday greets his new guests
00:25:28.000 : en:Shadow carries heavy burdens
00:26:54.000 : en:Laura wants a fortune
00:27:51.000 : en:People are called to places of power
00:29:03.000 : en:A powerful carnival ride
00:31:40.000 : en:A meeting of the old gods
00:40:01.000 : en:A celebratory meal
00:44:22.000 : en:Mr. World has someone on the inside
00:44:42.000 : en:Laura tries to warn Shadow
00:46:54.000 : en:The celebration turns deadly
00:52:14.000 : en:End Credits
 


Aby dodać komentarz należy się zalogować

Logowanie logowanie

Twoja ocena
Podobne torrenty
Wielcy pisarze amerykańscy (1958, Instytut Wydawniczy PAX) - Roman Dyboski [PL] [pdf]    AMERYKAŃSCY BOGOWIE / AMERICAN GODS [2017] [SEZON 1] [KOMPLET] [H264] [WEB-DL] [LEKTOR-PL]    AMERYKAŃSCY BOGOWIE / AMERICAN GODS [2017] [SEZON 2] [KOMPLET] [H264] [WEB-DL] [NAPISY-PL]    Amerykańscy bogowie American Gods [S02E07 08] [FINAŁ] [720p] [BDRip] [AC3] [XviD H3Q] [Lektor PL]

Wielcy pisarze amerykańscy (1958, Instytut Wydawniczy PAX) - Roman Dyboski [PL] [pdf]

AMERYKAŃSCY BOGOWIE / AMERICAN GODS [2017] [SEZON 1] [KOMPLET] [H264] [WEB-DL] [LEKTOR-PL]

AMERYKAŃSCY BOGOWIE / AMERICAN GODS [2017] [SEZON 2] [KOMPLET] [H264] [WEB-DL] [NAPISY-PL]

Amerykańscy bogowie  American Gods [S02E07 08] [FINAŁ] [720p] [BDRip] [AC3] [XviD H3Q] [Lektor PL]




Shoutbox (zawartość shoutboxa widoczna dla zalogowanych użytkowników)


Żaden z plików nie znajduje się na serwerze. Torrenty są własnością użytkowników. Administrator serwisu nie może ponieść konsekwencji za to co użytkownicy wstawiają, lub za to co czynią na stronie. Nie możesz używać tego serwisu do rozpowszechniania lub ściągania materiałów do których nie masz odpowiednich praw lub licencji. Użytkownicy odpowiedzialni są za przestrzeganie tych zasad. profil torrentcity.pl