The Outpost S03E02 [WEB.h264-BAE] [ENG] [Sub: ENG] torrent

 
The Outpost S03E02 [WEB.h264-BAE] [ENG] [Sub: ENG] torrent


Pozycję wystawił:
Ishimura
Dodano:26.10.2020
Kategoria:Seriale
Rozmiar:390.71 MB
Seedów:62
Peerów:4
Pobrań:9841

The Outpost S03E02 [WEB.h264-BAE] [ENG] [Sub: ENG] torrent


Info
https://pl.wikipedia.org/wiki/The_Outpost
https://www.filmweb.pl/serial/The+Outpost-2018-802493
https://www.imdb.com/title/tt7612548/
Stacja telewizyjna USA The CW POL SciFi Universal
Produkcja: USA Sezon 3 [Epizodów: 13]
Gatunek: Dramat, Fantasy
Premiera:USA 10 lipca 2018 POL 9 września 2018
Muzyka: James Schafer
Zdjęcia: John Lyde, Benjamin Allred

Opis
Serial osadzony w klimacie średniowiecza opowiadający losy ostatniej przedstawicielki rasy Czarnokwistych o imieniu Talon. Wiele lat po tym, jak cała jej wioska została zgładzona przez gang brutalnych najemników, a ona sama musiała ukrywać swoje pochodzenie w obawie o swoje życie, Talon udaje się do oddalonej od cywilizacji bazy w poszukiwaniu zabójców swojej rodziny. Wkrótce potem dziewczyna odkrywa, że posiada tajemniczą nadprzyrodzoną moc, którą musi nauczyć się kontrolować, aby uratować siebie i obronić świat przed fanatycznym religijnym dyktatorem.

Obsada

Jessica Green jak Talon
Jake Stormoen jako Garret Spears
Imogen Waterhouse jako Gwynn Calkussar/Princess Rosmund
Anand Desai-Barochia jako Janzo
Andrew Howard jako Gate Marshal Cedric Wythers
Robyn Malcolm jako Elinor
Kevin McNally jako The Smith

Role drugoplanowe

Charan Prabhakar jako Danno
Philip Brodie jako ambasador Everit Dred
Adam Johnson jako Munt
Thor Knai jako Kell
Cokey Falkow jako Tiberion Shek
Michael Flynn jako generał Cornelius Calkussar

Dane Techniczne

The.Outpost.S03E02.WEB.h264-BAE

2020/10/15
MediaInfo
Video
ID : 1
Format : AVC
Format/Info : Advanced Video Codec
Format profile : MainL3.1
Format settings : CABAC / 3 Ref Frames
Format settings, CABAC : Yes
Format settings, Reference frames : 3 frames
Codec ID : V_MPEG4/ISO/AVC
Duration : 42 min 27 s
Bit rate mode : Constant
Bit rate : 1 200 kb/s
Width : 960 pixels
Height : 540 pixels
Display aspect ratio : 16:9
Frame rate mode : Constant
Frame rate : 23.976 (24000/1001) FPS
Color space : YUV
Chroma subsampling : 4:2:0
Bit depth : 8 bits
Scan type : Progressive
Bits/(PixelFrame) : 0.097
Stream size : 362 MiB (93)
Language : English
Default : Yes
Forced : No

Audio
ID : 2
Format : AAC LC
Format/Info : Advanced Audio Codec Low Complexity
Codec ID : A_AAC-2
Duration : 42 min 27 s
Bit rate : 93.6 kb/s
Channel(s) : 2 channels
Channel layout : L R
Sampling rate : 44.1 kHz
Frame rate : 43.066 FPS (1024 SPF)
Compression mode : Lossy
Delay relative to video : -36 ms
Stream size : 28.4 MiB (7)
Language : English
Default : Yes
Forced : No

Text
ID : 3
Format : UTF-8
Codec ID : S_TEXT/UTF8
Codec ID/Info : UTF-8 Plain Text
Duration : 41 min 53 s
Bit rate : 73 b/s
Count of elements : 657
Stream size : 22.5 KiB (0)
Language : English
Default : No
Forced : No

Screenshot / Wideo

https://www.youtube.com/watch?v=H0OFrXjDb4U
 


Aby dodać komentarz należy się zalogować

Logowanie logowanie

Twoja ocena
Podobne torrenty
Scythe: Digital Edition (2018) [MULTi10-P] GOG] [v 1 6 85 + DLC] [DVD5] [exe]    Zielony smok The Green Dragon (2001)[DVDRip] [XviD] [Lektor PL]    Within Temptation - The Purge [EP] (2020) [FLAC]    Iron Maiden - Nights of the Dead, Legacy of the Beast: Live In Mexico City (2020) [Flac-24bit]

Scythe: Digital Edition  (2018) [MULTi10-P] GOG] [v 1.6.85 + DLC] [DVD5] [exe]

Zielony smok The Green Dragon (2001)[DVDRip] [XviD] [Lektor PL]

Within Temptation - The Purge [EP] (2020) [FLAC]

Iron Maiden - Nights of the Dead, Legacy of the Beast: Live In Mexico City (2020) [Flac-24bit]




Shoutbox (zawartość shoutboxa widoczna dla zalogowanych użytkowników)


Żaden z plików nie znajduje się na serwerze. Torrenty są własnością użytkowników. Administrator serwisu nie może ponieść konsekwencji za to co użytkownicy wstawiają, lub za to co czynią na stronie. Nie możesz używać tego serwisu do rozpowszechniania lub ściągania materiałów do których nie masz odpowiednich praw lub licencji. Użytkownicy odpowiedzialni są za przestrzeganie tych zasad. profil torrentcity.pl