Warrior Nun 2020 [S01] [1080p] [WEBRip] [DDP5.1 Atmos] [x264] [Napisy PL] torrent

 
Warrior Nun 2020 [S01] [1080p] [WEBRip] [DDP5.1 Atmos] [x264] [Napisy PL] torrent


Pozycję wystawił:
Ishimura
Dodano:02.07.2020
Kategoria:Seriale
Rozmiar:19.48 GB
Seedów:12
Peerów:12
Pobrań:48595

Warrior Nun 2020 [S01] [1080p] [WEBRip] [DDP5.1 Atmos] [x264]
[Napisy PL] torrent


Info

Produkcja: USA
Gatunek: Fantasy, Akcja
Twórca: Simon Barry
Platforma: Netflix
Premiera: 2 lipca 2020

Opis

Osierocona nastolatka budzi się w kostnicy. Odkrywa, że jako Powierniczka Aureoli dla tajnego zakonu zakonnic polujących na demony dysponuje teraz supermocami.

Alba Baptista gra główną rolę w uświęconej akcją opowieści o walce dobra ze złem na podstawie serii komiksów Bena Dunna.

Obsada

Alba Baptista .... Ava
Tristan Ulloa .... Ojciec Vincent
Toya Turner .... Shotgun Mary
Sylvia De Fanti .... Mother Superion
Lorena Andrea .... Siostra Lilith
Thekla Reuten .... Jillian Salvius
Kristina Tonteri-Young .... młoda siostra Beatrice
Emilio Sakraya .... JC
Joaquim de Almeida .... Cardinal Duretti [3]
Lope Haydn Evans .... Michael
Olivia Delcn .... Camila

https://www.youtube.com/watch?v=An0bZpuhiBE

Dane Techniczne

Video
ID : 1
Format : AVC
Format/Info : Advanced Video Codec
Format profile : [email protected]
Format settings : CABAC / 3 Ref Frames
Format settings, CABAC : Yes
Format settings, Reference frames : 3 frames
Codec ID : V_MPEG4/ISO/AVC
Duration : 46 min 41 s
Bit rate mode : Variable
Bit rate : 7 500 kb/s
Maximum bit rate : 11.2 Mb/s
Width : 1 920 pixels
Height : 1 080 pixels
Display aspect ratio : 16:9
Frame rate mode : Constant
Frame rate : 23.976 (24000/1001) FPS
Color space : YUV
Chroma subsampling : 4:2:0
Bit depth : 8 bits
Scan type : Progressive
Bits/(PixelFrame) : 0.151
Stream size : 2.37 GiB (90)
Writing library : x264 core 148 r2721 6d200cf
Encoding settings : cabac=1 / ref=3 / deblock=1:0:0 / analyse=0x1:0x111 / me=umh / subme=10 / psy=1 / psy_rd=1.00:0.00 / mixed_ref=1 / me_range=24 / chroma_me=1 / trellis=2 / 8x8dct=0 / cqm=0 / deadzone=21,11 / fast_pskip=1 / chroma_qp_offset=-2 / threads=6 / lookahead_threads=1 / sliced_threads=0 / nr=0 / decimate=1 / interlaced=0 / bluray_compat=0 / stitchable=1 / constrained_intra=0 / bframes=2 / b_pyramid=0 / b_adapt=2 / b_bias=0 / direct=3 / weightb=1 / open_gop=0 / weightp=2 / keyint=250 / keyint_min=23 / scenecut=0 / intra_refresh=0 / rc_lookahead=48 / rc=2pass / mbtree=1 / bitrate=7500 / ratetol=1.0 / qcomp=0.50 / qpmin=6 / qpmax=51 / qpstep=4 / cplxblur=20.0 / qblur=0.5 / vbv_maxrate=11250 / vbv_bufsize=15000 / nal_hrd=vbr / filler=0 / ip_ratio=1.40 / aq=1:1.00
Default : Yes
Forced : No

Audio
ID : 2
Format : E-AC-3 JOC
Format/Info : Enhanced AC-3 with Joint Object Coding
Commercial name : Dolby Digital Plus with Dolby Atmos
Codec ID : A_EAC3
Duration : 46 min 41 s
Bit rate mode : Constant
Bit rate : 768 kb/s
Channel(s) : 6 channels
Channel layout : L R C LFE Ls Rs
Sampling rate : 48.0 kHz
Frame rate : 31.250 FPS (1536 SPF)
Compression mode : Lossy
Stream size : 256 MiB (10)
Language : English
Service kind : Complete Main
Default : Yes
Forced : No
Complexity index : 16
Number of dynamic objects : 15
Bed channel count : 1 channel
Bed channel configuration : LFE

Text #1
ID : 3
Format : UTF-8
Codec ID : S_TEXT/UTF8
Codec ID/Info : UTF-8 Plain Text
Duration : 1 s 585 ms
Bit rate : 1 347 b/s
Count of elements : 1
Stream size : 267 Bytes (0)
Title : English [Forced]
Language : English
Default : Yes
Forced : Yes

Text #2
ID : 4
Format : UTF-8
Codec ID : S_TEXT/UTF8
Codec ID/Info : UTF-8 Plain Text
Duration : 45 min 59 s
Bit rate : 77 b/s
Count of elements : 580
Stream size : 26.2 KiB (0)
Title : Arabic
Language : Arabic
Default : No
Forced : No

Text #3
ID : 5
Format : UTF-8
Codec ID : S_TEXT/UTF8
Codec ID/Info : UTF-8 Plain Text
Duration : 45 min 59 s
Bit rate : 41 b/s
Count of elements : 570
Stream size : 13.9 KiB (0)
Title : Czech
Language : Czech
Default : No
Forced : No

Text #4
ID : 6
Format : UTF-8
Codec ID : S_TEXT/UTF8
Codec ID/Info : UTF-8 Plain Text
Duration : 45 min 57 s
Bit rate : 41 b/s
Count of elements : 435
Stream size : 14.1 KiB (0)
Title : Danish
Language : Danish
Default : No
Forced : No

Text #5
ID : 7
Format : UTF-8
Codec ID : S_TEXT/UTF8
Codec ID/Info : UTF-8 Plain Text
Duration : 45 min 59 s
Bit rate : 42 b/s
Count of elements : 566
Stream size : 14.3 KiB (0)
Title : German
Language : German
Default : No
Forced : No

Text #6
ID : 8
Format : UTF-8
Codec ID : S_TEXT/UTF8
Codec ID/Info : UTF-8 Plain Text
Duration : 46 min 1 s
Bit rate : 73 b/s
Count of elements : 561
Stream size : 24.8 KiB (0)
Title : Greek
Language : Greek
Default : No
Forced : No

Text #7
ID : 9
Format : UTF-8
Codec ID : S_TEXT/UTF8
Codec ID/Info : UTF-8 Plain Text
Duration : 45 min 53 s
Bit rate : 60 b/s
Count of elements : 743
Stream size : 20.5 KiB (0)
Title : English [SDH]
Language : English
Default : No
Forced : No

Text #8
ID : 10
Format : UTF-8
Codec ID : S_TEXT/UTF8
Codec ID/Info : UTF-8 Plain Text
Duration : 45 min 59 s
Bit rate : 42 b/s
Count of elements : 550
Stream size : 14.3 KiB (0)
Title : Spanish
Language : Spanish
Default : No
Forced : No

Text #9
ID : 11
Format : UTF-8
Codec ID : S_TEXT/UTF8
Codec ID/Info : UTF-8 Plain Text
Duration : 45 min 59 s
Bit rate : 39 b/s
Count of elements : 556
Stream size : 13.1 KiB (0)
Title : European Spanish
Language : Spanish
Default : No
Forced : No

Text #10
ID : 12
Format : UTF-8
Codec ID : S_TEXT/UTF8
Codec ID/Info : UTF-8 Plain Text
Duration : 45 min 59 s
Bit rate : 42 b/s
Count of elements : 500
Stream size : 14.3 KiB (0)
Title : Finnish
Language : Finnish
Default : No
Forced : No

Text #11
ID : 13
Format : UTF-8
Codec ID : S_TEXT/UTF8
Codec ID/Info : UTF-8 Plain Text
Duration : 45 min 59 s
Bit rate : 45 b/s
Count of elements : 537
Stream size : 15.3 KiB (0)
Title : French
Language : French
Default : No
Forced : No

Text #12
ID : 14
Format : UTF-8
Codec ID : S_TEXT/UTF8
Codec ID/Info : UTF-8 Plain Text
Duration : 45 min 59 s
Bit rate : 73 b/s
Count of elements : 573
Stream size : 24.6 KiB (0)
Title : Hebrew
Language : Hebrew
Default : No
Forced : No

Text #13
ID : 15
Format : UTF-8
Codec ID : S_TEXT/UTF8
Codec ID/Info : UTF-8 Plain Text
Duration : 45 min 59 s
Bit rate : 41 b/s
Count of elements : 573
Stream size : 13.9 KiB (0)
Title : Hungarian
Language : Hungarian
Default : No
Forced : No

Text #14
ID : 16
Format : UTF-8
Codec ID : S_TEXT/UTF8
Codec ID/Info : UTF-8 Plain Text
Duration : 45 min 59 s
Bit rate : 44 b/s
Count of elements : 568
Stream size : 14.9 KiB (0)
Title : Indonesian
Language : Indonesian
Default : No
Forced : No

Text #15
ID : 17
Format : UTF-8
Codec ID : S_TEXT/UTF8
Codec ID/Info : UTF-8 Plain Text
Duration : 45 min 59 s
Bit rate : 41 b/s
Count of elements : 544
Stream size : 14.1 KiB (0)
Title : Italian
Language : Italian
Default : No
Forced : No

Text #16
ID : 18
Format : UTF-8
Codec ID : S_TEXT/UTF8
Codec ID/Info : UTF-8 Plain Text
Duration : 45 min 59 s
Bit rate : 43 b/s
Count of elements : 582
Stream size : 14.7 KiB (0)
Title : Japanese
Language : Japanese
Default : No
Forced : No

Text #17
ID : 19
Format : UTF-8
Codec ID : S_TEXT/UTF8
Codec ID/Info : UTF-8 Plain Text
Duration : 45 min 59 s
Bit rate : 59 b/s
Count of elements : 602
Stream size : 20.1 KiB (0)
Title : Korean
Language : Korean
Default : No
Forced : No

Text #18
ID : 20
Format : UTF-8
Codec ID : S_TEXT/UTF8
Codec ID/Info : UTF-8 Plain Text
Duration : 45 min 59 s
Bit rate : 41 b/s
Count of elements : 546
Stream size : 13.8 KiB (0)
Title : Norwegian
Language : Norwegian Bokmal
Default : No
Forced : No

Text #19
ID : 21
Format : UTF-8
Codec ID : S_TEXT/UTF8
Codec ID/Info : UTF-8 Plain Text
Duration : 45 min 59 s
Bit rate : 44 b/s
Count of elements : 479
Stream size : 15.0 KiB (0)
Title : Dutch
Language : Dutch
Default : No
Forced : No

Text #20
ID : 22
Format : UTF-8
Codec ID : S_TEXT/UTF8
Codec ID/Info : UTF-8 Plain Text
Duration : 46 min 2 s
Bit rate : 41 b/s
Count of elements : 582
Stream size : 13.9 KiB (0)
Title : Polish
Language : Polish
Default : No
Forced : No

Text #21
ID : 23
Format : UTF-8
Codec ID : S_TEXT/UTF8
Codec ID/Info : UTF-8 Plain Text
Duration : 45 min 59 s
Bit rate : 43 b/s
Count of elements : 574
Stream size : 14.8 KiB (0)
Title : Portuguese
Language : Portuguese
Default : No
Forced : No

Text #22
ID : 24
Format : UTF-8
Codec ID : S_TEXT/UTF8
Codec ID/Info : UTF-8 Plain Text
Duration : 45 min 59 s
Bit rate : 43 b/s
Count of elements : 573
Stream size : 14.7 KiB (0)
Title : Portuguese Brazilian
Language : Portuguese
Default : No
Forced : No

Text #23
ID : 25
Format : UTF-8
Codec ID : S_TEXT/UTF8
Codec ID/Info : UTF-8 Plain Text
Duration : 45 min 59 s
Bit rate : 47 b/s
Count of elements : 576
Stream size : 16.2 KiB (0)
Title : Romanian
Language : Romanian
Default : No
Forced : No

Text #24
ID : 26
Format : UTF-8
Codec ID : S_TEXT/UTF8
Codec ID/Info : UTF-8 Plain Text
Duration : 45 min 59 s
Bit rate : 72 b/s
Count of elements : 559
Stream size : 24.5 KiB (0)
Title : Russian
Language : Russian
Default : No
Forced : No

Text #25
ID : 27
Format : UTF-8
Codec ID : S_TEXT/UTF8
Codec ID/Info : UTF-8 Plain Text
Duration : 46 min 1 s
Bit rate : 42 b/s
Count of elements : 489
Stream size : 14.2 KiB (0)
Title : Swedish
Language : Swedish
Default : No
Forced : No

Text #26
ID : 28
Format : UTF-8
Codec ID : S_TEXT/UTF8
Codec ID/Info : UTF-8 Plain Text
Duration : 45 min 59 s
Bit rate : 112 b/s
Count of elements : 584
Stream size : 37.8 KiB (0)
Title : Thai
Language : Thai
Default : No
Forced : No

Text #27
ID : 29
Format : UTF-8
Codec ID : S_TEXT/UTF8
Codec ID/Info : UTF-8 Plain Text
Duration : 45 min 59 s
Bit rate : 41 b/s
Count of elements : 562
Stream size : 14.0 KiB (0)
Title : Turkish
Language : Turkish
Default : No
Forced : No

Text #28
ID : 30
Format : UTF-8
Codec ID : S_TEXT/UTF8
Codec ID/Info : UTF-8 Plain Text
Duration : 45 min 59 s
Bit rate : 59 b/s
Count of elements : 567
Stream size : 20.0 KiB (0)
Title : Vietnamese
Language : Vietnamese
Default : No
Forced : No

Text #29
ID : 31
Format : UTF-8
Codec ID : S_TEXT/UTF8
Codec ID/Info : UTF-8 Plain Text
Duration : 45 min 59 s
Bit rate : 49 b/s
Count of elements : 583
Stream size : 16.7 KiB (0)
Title : Chinese Simplified
Language : Chinese
Default : No
Forced : No

Text #30
ID : 32
Format : UTF-8
Codec ID : S_TEXT/UTF8
Codec ID/Info : UTF-8 Plain Text
Duration : 45 min 59 s
Bit rate : 48 b/s
Count of elements : 600
Stream size : 16.4 KiB (0)
Title : Chinese Traditional
Language : Chinese
Default : No
Forced : No
 


Aby dodać komentarz należy się zalogować

Logowanie logowanie

Twoja ocena
Podobne torrenty
Wrota bohaterów - The Warriors Gate - Yongshi zhi men *2016* [BDRip] [XviD-KiT] [Dubbing PL]    Wojownicy Tęczy / Warriors Of The Rainbow: Seediq Bale *2011* [BRRip] [XviD-Zet] [LEKTOR PL] [TC] [AgusiQ]    Warrior *2011* [DVDSCREENER MKV AC3-c00kies] [ENG]    Ninja Warrior Polska (2019) [720p] [S01E07] [HDTV] [XViD] [AC3-H1] [PL] [Finał]

Wrota bohaterów - The Warriors Gate - Yongshi zhi men *2016* [BDRip] [XviD-KiT] [Dubbing PL]

Wojownicy Tęczy / Warriors Of The Rainbow: Seediq Bale *2011* [BRRip] [XviD-Zet] [LEKTOR PL] [TC] [AgusiQ]

Warrior *2011* [DVDSCREENER.MKV.AC3-c00kies] [ENG]

Ninja Warrior Polska (2019) [720p] [S01E07] [HDTV] [XViD] [AC3-H1] [PL] [Finał]




Shoutbox (zawartość shoutboxa widoczna dla zalogowanych użytkowników)


Żaden z plików nie znajduje się na serwerze. Torrenty są własnością użytkowników. Administrator serwisu nie może ponieść konsekwencji za to co użytkownicy wstawiają, lub za to co czynią na stronie. Nie możesz używać tego serwisu do rozpowszechniania lub ściągania materiałów do których nie masz odpowiednich praw lub licencji. Użytkownicy odpowiedzialni są za przestrzeganie tych zasad. profil torrentcity.pl