W obronie syna - Defending Jacob 2020 [S01E05] [2160p] [WEB] [x265] [DDP5.1.Atmos] [Napisy PL] torrent

 
W obronie syna - Defending Jacob 2020 [S01E05] [2160p] [WEB] [x265] [DDP5.1.Atmos] [Napisy PL] torrent


Pozycję wystawił:
Ishimura
Dodano:08.05.2020
Kategoria:Seriale
Rozmiar:7.32 GB
Seedów:0
Peerów:0
Pobrań:0

W obronie syna - Defending Jacob 2020 [S01E05] [2160p] [WEB] [x265]
[DDP5.1.Atmos] [Napisy PL] torrent


Info

Produkcja: USA
Gatunek: Kryminał
Twórca: Morten Tyldum
Platforma: Apple TV+
Premiera: 24 kwietnia 2020

Opis

Życie szanowanego prokuratora, Andy'ego Barbera wywraca się do góry nogami, gdy okazuje się, że w tajemnicze morderstwo zamieszany jest jego 14-letni syn. Szokująca zbrodnia wstrząsa małym miasteczkiem w Massachusetts. Sprawa nabiera tempa, z lubianego sąsiada i stróża prawda, Barber staje się wrogiem publicznym. Sam musi podjąć decyzję, po której stronie się opowiedzieć? Sprawiedliwości czy rodzicielskiej bezwarunkowej miłości do syna?

Obsada

https://www.youtube.com/watch?v=POzLYmv

Dane Techniczne

Video
ID : 1
Format : HEVC
Format/Info : High Efficiency Video Coding
Format profile : Main 10L5High
Codec ID : V_MPEGH/ISO/HEVC
Duration : 48 min 27 s
Bit rate : 20.9 Mb/s
Width : 3 840 pixels
Height : 1 920 pixels
Display aspect ratio : 2.000
Frame rate mode : Constant
Frame rate : 23.976 (24000/1001) FPS
Color space : YUV
Chroma subsampling : 4:2:0
Bit depth : 10 bits
Bits/(PixelFrame) : 0.118
Stream size : 7.06 GiB (96)
Default : Yes
Forced : No
Color range : Limited
Color primaries : BT.709
Transfer characteristics : BT.709
Matrix coefficients : BT.709

Audio
ID : 2
Format : E-AC-3 JOC
Format/Info : Enhanced AC-3 with Joint Object Coding
Commercial name : Dolby Digital Plus with Dolby Atmos
Codec ID : A_EAC3
Duration : 48 min 27 s
Bit rate mode : Constant
Bit rate : 768 kb/s
Channel(s) : 6 channels
Channel layout : L R C LFE Ls Rs
Sampling rate : 48.0 kHz
Frame rate : 31.250 FPS (1536 SPF)
Compression mode : Lossy
Stream size : 266 MiB (4)
Title : English
Language : English
Service kind : Complete Main
Default : Yes
Forced : No
Complexity index : 16
Number of dynamic objects : 15
Bed channel count : 1 channel
Bed channel configuration : LFE

Text #1
ID : 3
Format : UTF-8
Codec ID : S_TEXT/UTF8
Codec ID/Info : UTF-8 Plain Text
Duration : 45 min 42 s
Bit rate : 55 b/s
Count of elements : 586
Stream size : 18.6 KiB (0)
Title : English
Language : English
Default : No
Forced : No

Text #2
ID : 4
Format : UTF-8
Codec ID : S_TEXT/UTF8
Codec ID/Info : UTF-8 Plain Text
Duration : 46 min 9 s
Bit rate : 61 b/s
Count of elements : 673
Stream size : 20.8 KiB (0)
Title : English [SDH]
Language : English
Default : No
Forced : No

Text #3
ID : 5
Format : UTF-8
Codec ID : S_TEXT/UTF8
Codec ID/Info : UTF-8 Plain Text
Duration : 47 min 20 s
Bit rate : 81 b/s
Count of elements : 609
Stream size : 28.1 KiB (0)
Title : Arabic
Language : Arabic
Default : No
Forced : No

Text #4
ID : 6
Format : UTF-8
Codec ID : S_TEXT/UTF8
Codec ID/Info : UTF-8 Plain Text
Duration : 47 min 20 s
Bit rate : 77 b/s
Count of elements : 595
Stream size : 26.9 KiB (0)
Title : Bulgarian
Language : Bulgarian
Default : No
Forced : No

Text #5
ID : 7
Format : UTF-8
Codec ID : S_TEXT/UTF8
Codec ID/Info : UTF-8 Plain Text
Duration : 47 min 20 s
Bit rate : 50 b/s
Count of elements : 596
Stream size : 17.4 KiB (0)
Title : Czech
Language : Czech
Default : No
Forced : No

Text #6
ID : 8
Format : UTF-8
Codec ID : S_TEXT/UTF8
Codec ID/Info : UTF-8 Plain Text
Duration : 47 min 20 s
Bit rate : 53 b/s
Count of elements : 576
Stream size : 18.5 KiB (0)
Title : Danish
Language : Danish
Default : No
Forced : No

Text #7
ID : 9
Format : UTF-8
Codec ID : S_TEXT/UTF8
Codec ID/Info : UTF-8 Plain Text
Duration : 47 min 20 s
Bit rate : 44 b/s
Count of elements : 535
Stream size : 15.5 KiB (0)
Title : Dutch
Language : Dutch
Default : No
Forced : No

Text #8
ID : 10
Format : UTF-8
Codec ID : S_TEXT/UTF8
Codec ID/Info : UTF-8 Plain Text
Duration : 47 min 20 s
Bit rate : 48 b/s
Count of elements : 598
Stream size : 16.9 KiB (0)
Title : Estonian
Language : Estonian
Default : No
Forced : No

Text #9
ID : 11
Format : UTF-8
Codec ID : S_TEXT/UTF8
Codec ID/Info : UTF-8 Plain Text
Duration : 47 min 20 s
Bit rate : 47 b/s
Count of elements : 601
Stream size : 16.5 KiB (0)
Title : Finnish
Language : Finnish
Default : No
Forced : No

Text #10
ID : 12
Format : UTF-8
Codec ID : S_TEXT/UTF8
Codec ID/Info : UTF-8 Plain Text
Duration : 46 min 35 s
Bit rate : 49 b/s
Count of elements : 590
Stream size : 17.0 KiB (0)
Title : French
Language : French
Default : No
Forced : No

Text #11
ID : 13
Format : UTF-8
Codec ID : S_TEXT/UTF8
Codec ID/Info : UTF-8 Plain Text
Duration : 46 min 35 s
Bit rate : 49 b/s
Count of elements : 590
Stream size : 16.8 KiB (0)
Title : French Canadian
Language : French
Default : No
Forced : No

Text #12
ID : 14
Format : UTF-8
Codec ID : S_TEXT/UTF8
Codec ID/Info : UTF-8 Plain Text
Duration : 46 min 35 s
Bit rate : 49 b/s
Count of elements : 590
Stream size : 16.8 KiB (0)
Title : Canadian French
Language : French
Default : No
Forced : No

Text #13
ID : 15
Format : UTF-8
Codec ID : S_TEXT/UTF8
Codec ID/Info : UTF-8 Plain Text
Duration : 46 min 36 s
Bit rate : 47 b/s
Count of elements : 587
Stream size : 16.1 KiB (0)
Title : German
Language : German
Default : No
Forced : No

Text #14
ID : 16
Format : UTF-8
Codec ID : S_TEXT/UTF8
Codec ID/Info : UTF-8 Plain Text
Duration : 47 min 20 s
Bit rate : 90 b/s
Count of elements : 607
Stream size : 31.5 KiB (0)
Title : Greek
Language : Greek
Default : No
Forced : No

Text #15
ID : 17
Format : UTF-8
Codec ID : S_TEXT/UTF8
Codec ID/Info : UTF-8 Plain Text
Duration : 47 min 20 s
Bit rate : 74 b/s
Count of elements : 610
Stream size : 25.7 KiB (0)
Title : Hebrew
Language : Hebrew
Default : No
Forced : No

Text #16
ID : 18
Format : UTF-8
Codec ID : S_TEXT/UTF8
Codec ID/Info : UTF-8 Plain Text
Duration : 47 min 20 s
Bit rate : 136 b/s
Count of elements : 611
Stream size : 47.3 KiB (0)
Title : Hindi
Language : Hindi
Default : No
Forced : No

Text #17
ID : 19
Format : UTF-8
Codec ID : S_TEXT/UTF8
Codec ID/Info : UTF-8 Plain Text
Duration : 47 min 20 s
Bit rate : 50 b/s
Count of elements : 607
Stream size : 17.5 KiB (0)
Title : Hungarian
Language : Hungarian
Default : No
Forced : No

Text #18
ID : 20
Format : UTF-8
Codec ID : S_TEXT/UTF8
Codec ID/Info : UTF-8 Plain Text
Duration : 47 min 20 s
Bit rate : 52 b/s
Count of elements : 609
Stream size : 18.2 KiB (0)
Title : Indonesian
Language : Indonesian
Default : No
Forced : No

Text #19
ID : 21
Format : UTF-8
Codec ID : S_TEXT/UTF8
Codec ID/Info : UTF-8 Plain Text
Duration : 47 min 13 s
Bit rate : 54 b/s
Count of elements : 559
Stream size : 18.9 KiB (0)
Title : Italian
Language : Italian
Default : No
Forced : No

Text #20
ID : 22
Format : UTF-8
Codec ID : S_TEXT/UTF8
Codec ID/Info : UTF-8 Plain Text
Duration : 47 min 20 s
Bit rate : 46 b/s
Count of elements : 567
Stream size : 16.0 KiB (0)
Title : Japanese
Language : Japanese
Default : No
Forced : No

Text #21
ID : 23
Format : UTF-8
Codec ID : S_TEXT/UTF8
Codec ID/Info : UTF-8 Plain Text
Duration : 47 min 20 s
Bit rate : 52 b/s
Count of elements : 605
Stream size : 18.3 KiB (0)
Title : Lithuanian
Language : Lithuanian
Default : No
Forced : No

Text #22
ID : 24
Format : UTF-8
Codec ID : S_TEXT/UTF8
Codec ID/Info : UTF-8 Plain Text
Duration : 47 min 20 s
Bit rate : 54 b/s
Count of elements : 591
Stream size : 19.0 KiB (0)
Title : Latvian
Language : Latvian
Default : No
Forced : No

Text #23
ID : 25
Format : UTF-8
Codec ID : S_TEXT/UTF8
Codec ID/Info : UTF-8 Plain Text
Duration : 47 min 20 s
Bit rate : 56 b/s
Count of elements : 605
Stream size : 19.7 KiB (0)
Title : Malay
Language : Malay
Default : No
Forced : No

Text #24
ID : 26
Format : UTF-8
Codec ID : S_TEXT/UTF8
Codec ID/Info : UTF-8 Plain Text
Duration : 47 min 18 s
Bit rate : 48 b/s
Count of elements : 610
Stream size : 16.8 KiB (0)
Title : Simplified Chinese
Language : Chinese
Default : No
Forced : No

Text #25
ID : 27
Format : UTF-8
Codec ID : S_TEXT/UTF8
Codec ID/Info : UTF-8 Plain Text
Duration : 47 min 18 s
Bit rate : 51 b/s
Count of elements : 611
Stream size : 17.7 KiB (0)
Title : Traditional Chinese
Language : Chinese
Default : No
Forced : No

Text #26
ID : 28
Format : UTF-8
Codec ID : S_TEXT/UTF8
Codec ID/Info : UTF-8 Plain Text
Duration : 47 min 18 s
Bit rate : 53 b/s
Count of elements : 611
Stream size : 18.5 KiB (0)
Title : (Yue Chinese)
Language : Chinese
Default : No
Forced : No

Text #27
ID : 29
Format : UTF-8
Codec ID : S_TEXT/UTF8
Codec ID/Info : UTF-8 Plain Text
Duration : 47 min 20 s
Bit rate : 46 b/s
Count of elements : 598
Stream size : 16.0 KiB (0)
Title : Norwegian
Language : Norwegian
Default : No
Forced : No

Text #28
ID : 30
Format : UTF-8
Codec ID : S_TEXT/UTF8
Codec ID/Info : UTF-8 Plain Text
Duration : 47 min 20 s
Bit rate : 49 b/s
Count of elements : 607
Stream size : 17.0 KiB (0)
Title : Polish
Language : Polish
Default : No
Forced : No

Text #29
ID : 31
Format : UTF-8
Codec ID : S_TEXT/UTF8
Codec ID/Info : UTF-8 Plain Text
Duration : 47 min 20 s
Bit rate : 55 b/s
Count of elements : 604
Stream size : 19.4 KiB (0)
Title : Portuguese
Language : Portuguese
Default : No
Forced : No

Text #30
ID : 32
Format : UTF-8
Codec ID : S_TEXT/UTF8
Codec ID/Info : UTF-8 Plain Text
Duration : 47 min 20 s
Bit rate : 49 b/s
Count of elements : 592
Stream size : 17.2 KiB (0)
Title : Brazilian Portuguese
Language : Portuguese
Default : No
Forced : No

Text #31
ID : 33
Format : UTF-8
Codec ID : S_TEXT/UTF8
Codec ID/Info : UTF-8 Plain Text
Duration : 47 min 20 s
Bit rate : 84 b/s
Count of elements : 611
Stream size : 29.3 KiB (0)
Title : Russian
Language : Russian
Default : No
Forced : No

Text #32
ID : 34
Format : UTF-8
Codec ID : S_TEXT/UTF8
Codec ID/Info : UTF-8 Plain Text
Duration : 47 min 20 s
Bit rate : 48 b/s
Count of elements : 606
Stream size : 17.0 KiB (0)
Title : Slovak
Language : Slovak
Default : No
Forced : No

Text #33
ID : 35
Format : UTF-8
Codec ID : S_TEXT/UTF8
Codec ID/Info : UTF-8 Plain Text
Duration : 47 min 20 s
Bit rate : 42 b/s
Count of elements : 606
Stream size : 14.9 KiB (0)
Title : Slovenian
Language : Slovenian
Default : No
Forced : No

Text #34
ID : 36
Format : UTF-8
Codec ID : S_TEXT/UTF8
Codec ID/Info : UTF-8 Plain Text
Duration : 47 min 20 s
Bit rate : 49 b/s
Count of elements : 571
Stream size : 17.1 KiB (0)
Title : Latin America Spanish
Language : Spanish
Default : No
Forced : No

Text #35
ID : 37
Format : UTF-8
Codec ID : S_TEXT/UTF8
Codec ID/Info : UTF-8 Plain Text
Duration : 47 min 30 s
Bit rate : 51 b/s
Count of elements : 594
Stream size : 18.1 KiB (0)
Title : European Spanish
Language : Spanish
Default : No
Forced : No

Text #36
ID : 38
Format : UTF-8
Codec ID : S_TEXT/UTF8
Codec ID/Info : UTF-8 Plain Text
Duration : 47 min 20 s
Bit rate : 52 b/s
Count of elements : 609
Stream size : 18.1 KiB (0)
Title : Swedish
Language : Swedish
Default : No
Forced : No

Text #37
ID : 39
Format : UTF-8
Codec ID : S_TEXT/UTF8
Codec ID/Info : UTF-8 Plain Text
Duration : 47 min 20 s
Bit rate : 185 b/s
Count of elements : 610
Stream size : 64.2 KiB (0)
Title : Tamil
Language : Tamil
Default : No
Forced : No

Text #38
ID : 40
Format : UTF-8
Codec ID : S_TEXT/UTF8
Codec ID/Info : UTF-8 Plain Text
Duration : 47 min 20 s
Bit rate : 156 b/s
Count of elements : 610
Stream size : 54.2 KiB (0)
Title : Telugu
Language : Telugu
Default : No
Forced : No

Text #39
ID : 41
Format : UTF-8
Codec ID : S_TEXT/UTF8
Codec ID/Info : UTF-8 Plain Text
Duration : 47 min 20 s
Bit rate : 138 b/s
Count of elements : 610
Stream size : 48.0 KiB (0)
Title : Thai
Language : Thai
Default : No
Forced : No

Text #40
ID : 42
Format : UTF-8
Codec ID : S_TEXT/UTF8
Codec ID/Info : UTF-8 Plain Text
Duration : 47 min 20 s
Bit rate : 79 b/s
Count of elements : 611
Stream size : 27.6 KiB (0)
Title : Ukrainian
Language : Ukrainian
Default : No
Forced : No

Text #41
ID : 43
Format : UTF-8
Codec ID : S_TEXT/UTF8
Codec ID/Info : UTF-8 Plain Text
Duration : 47 min 20 s
Bit rate : 74 b/s
Count of elements : 610
Stream size : 25.9 KiB (0)
Title : Vietnamese
Language : Vietnamese
Default : No
Forced : No
 


Aby dodać komentarz należy się zalogować

Logowanie logowanie

Twoja ocena
Podobne torrenty
Mroczna wyspa - Dark Island *2010* [DVDRip XviD-ELiA][ENG][AgusiQ] ♥    The Best Mixed Wallpapers Pack 125 *2010*[1600x1200 - 1920x1440][JPG][TC][Kotlet13City]    Gabriele Amorth - Będziemy sądzeni z miłości Zły duch jest niczym wobec Miłosierdzia Bożego [PL] [PDF,EPUB,AZW3]    Moje Gotowanie 01 2015 [PL] [pdf]

Mroczna wyspa - Dark Island *2010* [DVDRip.XviD-ELiA][ENG][AgusiQ] ♥

The Best Mixed Wallpapers Pack 125 *2010*[1600x1200 - 1920x1440][JPG][TC][Kotlet13City]

Gabriele Amorth - Będziemy sądzeni z miłości. Zły duch jest niczym wobec Miłosierdzia Bożego [PL] [PDF,EPUB,AZW3]

Moje Gotowanie 01 2015 [PL] [pdf]





mleczko138 2020-08-13 19:40:27

Można prosić cały sezon? na innych torentach znalazłam cały sezon ale napisy nie działają. Może tu się uda,


Shoutbox (zawartość shoutboxa widoczna dla zalogowanych użytkowników)


Żaden z plików nie znajduje się na serwerze. Torrenty są własnością użytkowników. Administrator serwisu nie może ponieść konsekwencji za to co użytkownicy wstawiają, lub za to co czynią na stronie. Nie możesz używać tego serwisu do rozpowszechniania lub ściągania materiałów do których nie masz odpowiednich praw lub licencji. Użytkownicy odpowiedzialni są za przestrzeganie tych zasad. profil torrentcity.pl