Defending Jacob 2020 [S01E01] [WEB] [H264] [Napisy PL] torrent

 
Defending Jacob 2020 [S01E01] [WEB] [H264] [Napisy PL] torrent


Pozycję wystawił:
Ishimura
Dodano:24.04.2020
Kategoria:Seriale
Rozmiar:438.21 MB
Seedów:29
Peerów:4
Pobrań:37935

Defending Jacob 2020 [S01E01] [WEB] [H264] [Napisy PL] torrent


Info

Produkcja: USA
Gatunek: Kryminał
Twórca: Morten Tyldum
Platforma: Apple TV+
Premiera: 24 kwietnia 2020

Opis

Życie szanowanego prokuratora, Andy'ego Barbera wywraca się do góry nogami, gdy okazuje się, że w tajemnicze morderstwo zamieszany jest jego 14-letni syn. Szokująca zbrodnia wstrząsa małym miasteczkiem w Massachusetts. Sprawa nabiera tempa, z lubianego sąsiada i stróża prawda, Barber staje się wrogiem publicznym. Sam musi podjąć decyzję, po której stronie się opowiedzieć? Sprawiedliwości czy rodzicielskiej bezwarunkowej miłości do syna?

Obsada

https://www.youtube.com/watch?v=POzLYmv

Dane Techniczne

Video
ID : 1
Format : AVC
Format/Info : Advanced Video Codec
Format profile : HighL3.1
Format settings : CABAC / 5 Ref Frames
Format settings, CABAC : Yes
Format settings, Reference frames : 5 frames
Codec ID : avc1
Codec ID/Info : Advanced Video Coding
Duration : 45 min 22 s
Bit rate : 1 100 kb/s
Width : 720 pixels
Height : 360 pixels
Display aspect ratio : 2.004
Frame rate mode : Constant
Frame rate : 23.976 (24000/1001) FPS
Color space : YUV
Chroma subsampling : 4:2:0
Bit depth : 8 bits
Scan type : Progressive
Bits/(PixelFrame) : 0.177
Stream size : 351 MiB (81)
Title : Defending.Jacob.S01E01.WEB-DL.x264-ION10
Writing library : x264 core 148 r2795M aaa9aa8
Encoding settings : cabac=1 / ref=5 / deblock=1:-1:-1 / analyse=0x3:0x113 / me=umh / subme=9 / psy=1 / psy_rd=1.00:0.15 / mixed_ref=1 / me_range=16 / chroma_me=1 / trellis=2 / 8x8dct=1 / cqm=0 / deadzone=21,11 / fast_pskip=1 / chroma_qp_offset=-3 / threads=24 / lookahead_threads=2 / sliced_threads=0 / nr=0 / decimate=1 / interlaced=0 / bluray_compat=0 / constrained_intra=0 / bframes=3 / b_pyramid=2 / b_adapt=2 / b_bias=0 / direct=3 / weightb=1 / open_gop=0 / weightp=2 / keyint=250 / keyint_min=23 / scenecut=40 / intra_refresh=0 / rc_lookahead=50 / rc=abr / mbtree=1 / bitrate=1100 / ratetol=1.0 / qcomp=0.60 / qpmin=0 / qpmax=69 / qpstep=4 / ip_ratio=1.40 / aq=1:1.00
Encoded date : UTC 2020-04-24 04:35:23
Tagged date : UTC 2020-04-24 04:35:23
Codec configuration box : avcC

Audio
ID : 2
Format : AAC LC
Format/Info : Advanced Audio Codec Low Complexity
Codec ID : mp4a-40-2
Duration : 45 min 22 s
Duration_LastFrame : -11 ms
Bit rate mode : Constant
Bit rate : 256 kb/s
Channel(s) : 2 channels
Channel layout : L R
Sampling rate : 48.0 kHz
Frame rate : 46.875 FPS (1024 SPF)
Compression mode : Lossy
Stream size : 83.1 MiB (19)
Title : Defending.Jacob.S01E01.WEB-DL.x264-ION10
Language : English
Default : Yes
Alternate group : 1
Encoded date : UTC 2020-04-24 04:35:23
Tagged date : UTC 2020-04-24 04:35:23
 


Aby dodać komentarz należy się zalogować

Logowanie logowanie

Twoja ocena
Podobne torrenty
Defending Jacob 2020 [S01E01] [1080p] [WEB] [H264] [Napisy PL]    Defending Jacob 2020 [S01E03] [720p] [WEB] [H264] [Napisy PL]    Defending Jacob 2020 [S01E02] [1080p] [WEB] [H264] [Napisy PL]    Defending Jacob 2020 [S01E03] [WEB] [H264] [Napisy PL]

Defending Jacob 2020 [S01E01] [1080p] [WEB] [H264] [Napisy PL]

Defending Jacob 2020 [S01E03] [720p] [WEB] [H264] [Napisy PL]

Defending Jacob 2020 [S01E02] [1080p] [WEB] [H264]  [Napisy PL]

Defending Jacob 2020 [S01E03] [WEB] [H264] [Napisy PL]





muflonik2009 2020-07-01 17:24:34

napisy nie działają...


Shoutbox (zawartość shoutboxa widoczna dla zalogowanych użytkowników)


Żaden z plików nie znajduje się na serwerze. Torrenty są własnością użytkowników. Administrator serwisu nie może ponieść konsekwencji za to co użytkownicy wstawiają, lub za to co czynią na stronie. Nie możesz używać tego serwisu do rozpowszechniania lub ściągania materiałów do których nie masz odpowiednich praw lub licencji. Użytkownicy odpowiedzialni są za przestrzeganie tych zasad. profil torrentcity.pl