Chicago Fire S03E08-17 [480p] [DVDRip] [DD2.0] [x264-Ralf] [Lektor PL] torrent

 
Chicago Fire S03E08-17 [480p] [DVDRip] [DD2.0] [x264-Ralf] [Lektor PL] torrent


Pozycję wystawił:
andrzej559
Dodano:08.12.2018
Kategoria:Seriale
Rozmiar:5.69 GB
Seedów:4
Peerów:3
Pobrań:7

Chicago Fire S03E08-17 [480p] [DVDRip] [DD2.0] [x264-Ralf] [Lektor
PL] torrent

[Akcja]



==================
...::: INFO :::...
==================

Produkcja: USA
Gatunek: Dramat, Akcja
Premiera: Stany Zjednoczone 10 października 2012
Polska 18 listopada 2012
Muzyka: Atli Örvarsson
Zdjęcia: Lisa Wiegand, Jayson Crothers

==================
...::: OPIS :::...
==================

Żadna praca nie jest bardziej stresująca, niebezpieczna, czy ekscytująca niż strażaków - członków Oddziału Ratunkowego i sanitariuszy z Chicago Firehouse 51. Są to odważni mężczyźni i kobiety, którzy stają oko w oko z niebezpieczeństwem, reagują, gdy wszyscy inni boją się podjąć działanie. Jednak ogromne obowiązki w pracy odbijają piętno na ich życiu osobistym. Gdy tragedia spotyka jednego z członków zespołu, w powietrzu unosi się sporo poczucia winy i żalu. Porucznik Matthew Casey (Jesse Spencer) stara się pracować normalnie, lecz nie może porozumieć się z porucznikiem Kelly Severidem (Taylor Kinney), z Oddziału Ratunkowego, z którym wzajemnie obwiniają się o śmierć jednego z członków zespołu. Gdy jednak zachodzi wyższa konieczność, są w stanie zakopać wojenny topór i stanąć na wysokości zadania, ratując życie potrzebującym pomocy.

==============
...::: OBSADA :::...
==============

Taylor Kinney .... Kelly Severide
Jesse Spencer .... Matthew Casey
Eamonn Walker .... Wallace Boden
Monica Raymund .... Gabriela Dawson
David Eigenberg .... Christopher Herrmann
Charlie Barnett .... Peter Mills
Lauren German .... Leslie Shay
Christian Stolte .... Randall McHolland

=======================
...::: DANE TECHNICZNE :::...
=======================

General
Format : AVI
Format/INFO : Audio Video Interleave
Format profile : OpenDML
Format settings : rec
File size : 590 MiB
Duration : 41mn 14s
Overall bit rate : 2 002 Kbps
Writing application : AVI-Mux GUI 1.17.8.3, Feb 16 201019:42:50

Video
ID : 0
Format : MPEG-4 Visual
Format profile : Advanced Simple@L5
Format settings, BVOP : 2
Format settings, QPel : No
Format settings, GMC : No warppoints
Format settings, Matrix : Default (H.263)
Codec ID : XVID
Codec ID/Hint : XviD
Duration : 41mn 14s
Bit rate : 1 612 Kbps
Width : 720 pixels
Height : 400 pixels
Display aspect ratio : 16:9
Frame rate : 25.000 fps
Color space : YUV
Chroma subsampling : 4:2:0
Bit depth : 8 bits
Scan type : Progressive
Compression mode : Lossy
Bits/(Pixel*Frame) : 0.224
Stream size : 476 MiB (81%)
Writing library : XviD 67

Audio
ID : 1
Format : AC-3
Format/INFO : Audio Coding 3
Mode extension : CM (complete main)
Format settings, Endianness : Big
Codec ID : 2000
Duration : 41mn 14s
Bit rate mode : Constant
Bit rate : 384 Kbps
Channel(s) : 2 channels
Channel positions : Front: L R
Sampling rate : 48.0 KHz
Bit depth : 16 bits
Compression mode : Lossy
Stream size : 113 MiB (19%)
Alignment : Aligned on interleaves
Interleave, duration : 64 ms (1.60 video frames)
Interleave, preload duration : 192 ms
 


Aby dodać komentarz należy się zalogować

Logowanie logowanie

Twoja ocena
Podobne torrenty
Chicago Fire [S01E06] [HDTV] [XviD-AFG] [ENG] [AgusiQ] ♥    Chicago Fire [S06E04] [1080p] [WEB] [x264-TBS] [ENG]    Chicago Fire [S06E02] [HDTV] [x264-KILLERS] [ENG]    Chicago Fire S01E09 [720p] [HDTV] [X264-DIMENSION] [ENG]

Chicago Fire [S01E06] [HDTV] [XviD-AFG] [ENG] [AgusiQ] ♥

Chicago Fire [S06E04] [1080p] [WEB] [x264-TBS] [ENG]

Chicago Fire [S06E02] [HDTV] [x264-KILLERS] [ENG]

Chicago Fire S01E09 [720p] [HDTV] [X264-DIMENSION] [ENG]




Shoutbox (zawartość shoutboxa widoczna dla zalogowanych użytkowników)


Żaden z plików nie znajduje się na serwerze. Torrenty są własnością użytkowników. Administrator serwisu nie może ponieść konsekwencji za to co użytkownicy wstawiają, lub za to co czynią na stronie. Nie możesz używać tego serwisu do rozpowszechniania lub ściągania materiałów do których nie masz odpowiednich praw lub licencji. Użytkownicy odpowiedzialni są za przestrzeganie tych zasad. profil torrentcity.pl