Hackerville (2018) S01E06 [480p] [WEBRip] [x264-666] [Lektor PL] torrent

 
Hackerville (2018) S01E06 [480p] [WEBRip] [x264-666] [Lektor PL] torrent


Pozycję wystawił:
andrzej559
Dodano:08.12.2018
Kategoria:Seriale
Rozmiar:559.20 MB
Seedów:7
Peerów:1
Pobrań:227

Hackerville (2018) S01E06 [480p] [WEBRip] [x264-666] [Lektor PL] torrent

[Akcja]


==================
...::: INFO :::...
==================

Ocena: IMDB - 8.3/10 (242)
Produkcja: Niemcy | Rumunia
Stacja TV: HBO3
Gatunek:Akcja | Thriller
Czas trwania: 55 min.
Premiera: 04.11.2018 r. - Świat
Twórca: alph Martin | Jörg Wingers

==================
...::: OPIS :::...
==================

Duży niemiecki bank zostaje zaatakowany przez hakerów. Niedługo potem okazuje się, że trop prowadzi do Rumunii. Lisa Metz, specjalistka od cyberprzestępczości w niemieckiej federalnej policji kryminalnej, zostaje wysłana z Frankfurtu do Timisoary, swojego rodzinnego miasta, gdzie rozpoczyna współpracę z lokalnym zespołem śledczym. Lisa i jej rodzice uciekli z Rumunii, kiedy ona była jeszcze dzieckiem. Wiele lat później rodzinny kraj wydaje jej się jednocześnie dziwnie znajomy i kompletnie obcy. Po raz pierwszy w swoim życiu Lisa jest zmuszona skonfrontować się z niejasną historią swojej rodziny. Różnice kulturowe stają się boleśnie widoczne, kiedy okazuje się, że Adam Sandor (Andi Vasluianu), policjant z Timisoary, z którym ma współpracować podczas śledztwa, myśli w zupełnie inny sposób, co jest przyczyną frustracji Lisy... niedługo potem staje się oczywiste, że niechęć obojga jest obopólna. Pomimo dzielących ich różnic dwójka śledczych musi jednak zacząć współpracować ze sobą, żeby ocalić 14-letniego Cipiego (debiutant Voicu Dumitras), genialnego gracza, który staje się celem przestępców.

==============
...::: OBSADA :::...
==============

Anna Schumacher - Lisa Metz
Andi Vasluianu - Adam Sandor
Voicu Dumitras - Cipi Matei
Calin Chirila - Valentin Pogonaru
Ada Lupu - Nicoleta Danciu
Vlad Brumaru - Dragos Matei
Ovidiu Schumacher - Walter Metz
Stefan Lupu - Cezar Iacob
Emanuel Parvu - Toni Damaschin
Ronald Zehrfeld - Wolfgang Lerber
Sabin Tambrea - Andrei Borisov
Ciobanu Petru - Bogdan Dobre
Boris Gaza - Cristi Vasile
Florin Galan - Cornel Popescu / Seraphim
Dana Dembinski Medeleanu - Luminita Chiriac
Toto Dumitrescu - Virgil Chiriac
Lana Cooper - Frederique Dietz
Sorin Tofan - Sorin Pencu
Ion Grosu - Nicolae Petrescu
Valentin Popescu - Stelu Chiriac
Nina Kunzendorf - Vanessa Wagner

=======================
...::: DANE TECHNICZNE :::...
=======================

Format : Matroska
Format version : Version 4
File size : 606 MiB
Duration : 58 min 10 s
Overall bit rate : 1 456 kb/s
Movie name : Hackerville.2018.S01E05.PL.480p.WEBRip.x264-666
Encoded date : UTC 2018-11-27 10:42:33 / UTC 2018-11-27T10:22:01Z
Writing application : mkvmerge v28.1.0 ('Morning Child') 64-bit
Writing library : libebml v1.3.6 + libmatroska v1.4.9 / Lavf57.7.2

Video
ID : 1
Format : AVC
Format/INFO : Advanced Video Codec
Format profile : High@L4
Format settings : CABAC / 4 Ref Frames
Format settings, CABAC : Yes
Format settings, ReFrames : 4 frames
Codec ID : V_MPEG4/ISO/AVC
Duration : 58 min 10 s
Bit rate : 1 300 kb/s
Width : 854 pixels
Height : 480 pixels
Display aspect ratio : 16:9
Frame rate mode : Constant
Frame rate : 25.000 FPS
Color space : YUV
Chroma subsampling : 4:2:0
Bit depth : 8 bits
Scan type : Progressive
Bits/(Pixel*Frame) : 0.127
Stream size : 539 MiB (89%)
Title : Hackerville.2018.S01E05.PL.480p.WEBRip.x264-666
Writing library : x264 core 148 r2708 86b7198
Encoding settings : cabac=1 / ref=1 / deblock=1:-1:-1 / analyse=0x3:0x113 / me=hex / subme=2 / psy=1 / psy_rd=1.00:0.15 / mixed_ref=0 / me_range=16 / chroma_me=1 / trellis=0 / 8x8dct=1 / cqm=0 / deadzone=21,11 / fast_pskip=1 / chroma_qp_offset=0 / threads=6 / lookahead_threads=2 / sliced_threads=0 / nr=0 / decimate=1 / interlaced=0 / bluray_compat=0 / constrained_intra=0 / bframes=3 / b_pyramid=2 / b_adapt=1 / b_bias=0 / direct=1 / weightb=1 / open_gop=0 / weightp=1 / keyint=250 / keyint_min=25 / scenecut=40 / intra_refresh=0 / rc_lookahead=10 / rc=abr / mbtree=1 / bitrate=1300 / ratetol=1.0 / qcomp=0.60 / qpmin=0 / qpmax=69 / qpstep=4 / vbv_maxrate=25000 / vbv_bufsize=31250 / nal_hrd=none / filler=0 / ip_ratio=1.40 / aq=1:1.00
Default : Yes
Forced : No
Color range : Limited
Color primaries : BT.709
Transfer characteristics : BT.709
Matrix coefficients : BT.709

Audio
ID : 2
Format : AC-3
Format/INFO : Audio Coding 3
Commercial name : Dolby Digital
Codec ID : A_AC3
Duration : 58 min 10 s
Bit rate mode : Constant
Bit rate : 160 kb/s
Channel(s) : 2 channels
Channel layout : L R
Sampling rate : 48.0 kHz
Frame rate : 31.250 FPS (1536 SPF)
Bit depth : 16 bits
Compression mode : Lossy
Delay relative to video : -5 ms
Stream size : 66.6 MiB (11%)
Title : Hackerville.2018.S01E05.PL.480p.WEBRip.x264-666
Language : Polish
Service kind : Complete Main
Default : Yes
Forced : No
 


Aby dodać komentarz należy się zalogować

Logowanie logowanie

Twoja ocena
Podobne torrenty
Hackerville [S01E06] [FINAŁ] [480p] [WEB] [DD2 0] [XviD Ralf] [Lektor PL]    Hackerville (2018) S01E05 [480p] [WEBRip] [x264-666] [Lektor PL]    Hackerville 2018 S01E01 03 [480p] [WEBRip] [x264 666] [Lektor PL]    Hackerville 2018 S01E01-03 [480p] [WEBRip] [x264-666] [Lektor PL]

Hackerville [S01E06] [FINAŁ] [480p] [WEB] [DD2 0] [XviD Ralf] [Lektor PL]

Hackerville (2018) S01E05 [480p] [WEBRip] [x264-666] [Lektor PL]

Hackerville 2018 S01E01 03 [480p] [WEBRip] [x264 666] [Lektor PL]

Hackerville 2018 S01E01-03 [480p] [WEBRip] [x264-666] [Lektor PL]




Shoutbox (zawartość shoutboxa widoczna dla zalogowanych użytkowników)


Żaden z plików nie znajduje się na serwerze. Torrenty są własnością użytkowników. Administrator serwisu nie może ponieść konsekwencji za to co użytkownicy wstawiają, lub za to co czynią na stronie. Nie możesz używać tego serwisu do rozpowszechniania lub ściągania materiałów do których nie masz odpowiednich praw lub licencji. Użytkownicy odpowiedzialni są za przestrzeganie tych zasad. profil torrentcity.pl