Kruk Szepty słychać po zmroku 2018 [S01E01] [1080p HDTV H 264 AC3] [PL] torrent

 
Kruk Szepty słychać po zmroku 2018 [S01E01] [1080p HDTV H 264 AC3] [PL] torrent


Pozycję wystawił:
Ishimura
Dodano:21.06.2018
Kategoria:Seriale
Rozmiar:2.92 GB
Seedów:6
Peerów:2
Pobrań:1247

Kruk Szepty słychać po zmroku 2018 [S01E01] [1080p HDTV H 264
AC3] [PL] torrent


Info...

Kruk. Szepty słychać po zmroku / Sezon 1 - odcinek 1
gatunek: Thriller
produkcja: PL
premiera serialu: 18.03.2018
czas trwania: ok 52 min.
reżyseria: Maciej Pieprzyca
scenariusz: Jakub Korolczuk

Ocena FilmWEB: ----
Ocena IMDb: ----

Opis...

Na Podlasiu dochodzi do porwania nastoletniego chłopca. Adam Kruk, inspektor łódzkiego wydziału kryminalnego zostaje w tym samym czasie oddelegowany do Białegostoku. Po latach wraca do miasta, w którym dorastał, gdzie będzie musiał się zmierzyć nie tylko ze sprawą porwanego chłopca, ale także z mroczną stroną swojej przeszłości.

http://www.filmweb.pl/serial/Kruk.+Szepty+sC582ychaC487+po+zmroku-2018-794373

Obsada...

Michał Żurawski - Adam Kruk
Cezary Łukaszewicz - Sławek
Katarzyna Wajda
Andrzej Zaborski
Anna Nehrebecka
Jerzy Schejbal
Marcin Bosak
Mariusz Jakus

Dane techniczne...

Format : Matroska
Format version : Version 4 / Version 2
File size : 2.92 GiB
Duration : 51 min 44 s
Overall bit rate : 8 082 kb/s
Encoded date : UTC 2018-03-18 22:10:53

Video
ID : 1
Format : AVC
Format/INFO : Advanced Video Codec
Format profile : Baseline at L4
Format settings, CABAC : No
Format settings, RefFrames : 1 frame
Format settings, GOP : M=1, N=3
Codec ID : V_MPEG4/ISO/AVC
Duration : 51 min 44 s
Bit rate : 7 888 kb/s
Width : 1 920 pixels
Height : 1 080 pixels
Display aspect ratio : 16:9
Frame rate mode : Constant
Frame rate : 25.000 FPS
Color space : YUV
Chroma subsampling : 4:2:0
Bit depth : 8 bits
Scan type : Progressive
Bits/(PixelFrame) : 0.152
Stream size : 2.85 GiB (98)

Audio
ID : 2
Format : AC-3
Format/INFO : Audio Coding 3
Format settings, Endianness : Big
Codec ID : A_AC3
Duration : 51 min 44 s
Bit rate mode : Constant
Bit rate : 192 kb/s
Channel(s) : 2 channels
Channel positions : Front: L R
Sampling rate : 48.0 kHz
Frame rate : 31.250 FPS (1536 SPF)
Bit depth : 16 bits
Compression mode : Lossy
Stream size : 71.1 MiB (2)
Language : Polish
Service kind : Complete Main
 


Aby dodać komentarz należy się zalogować

Logowanie logowanie

Twoja ocena
Podobne torrenty
Kruk: Droga do nieba / The Crow: Stairway to Heaven (1998) SEZON 1 [DVDRip XviD][ENG]    Biały Kruk - The White Raven *1998* [DVDRip] [XviD] [AC3] [Lektor PL]    Kruk: Zagadka zbrodni / The Raven *2012* [BDRip] [XviD-BiDA] [LEKTOR PL]    Gothic 2 Noc kruka PL + Crack

Kruk: Droga do nieba / The Crow: Stairway to Heaven (1998) SEZON 1  [DVDRip.XviD][ENG]

Biały Kruk - The White Raven *1998* [DVDRip] [XviD] [AC3] [Lektor PL]

Kruk: Zagadka zbrodni / The Raven *2012* [BDRip] [XviD-BiDA] [LEKTOR PL]

Gothic 2 Noc kruka PL + Crack





robertocarlos13 2018-06-21 19:20:20

Mógłbym prosić o wszystkie części w tym formacie??Byłbym bardzo wdzięczny.


Shoutbox (zawartość shoutboxa widoczna dla zalogowanych użytkowników)


Żaden z plików nie znajduje się na serwerze. Torrenty są własnością użytkowników. Administrator serwisu nie może ponieść konsekwencji za to co użytkownicy wstawiają, lub za to co czynią na stronie. Nie możesz używać tego serwisu do rozpowszechniania lub ściągania materiałów do których nie masz odpowiednich praw lub licencji. Użytkownicy odpowiedzialni są za przestrzeganie tych zasad. profil torrentcity.pl