Billions 2018 [S03E08] [720p AMZN WEB DL H 264 AC3] [Lektor PL] torrent

 
Billions 2018 [S03E08] [720p AMZN WEB DL H 264 AC3] [Lektor PL] torrent


Pozycję wystawił:
Ishimura
Dodano:17.05.2018
Kategoria:Seriale
Rozmiar:854.36 MB
Seedów:0
Peerów:3
Pobrań:371

Billions 2018 [S03E08] [720p AMZN WEB DL H 264 AC3] [Lektor PL] torrent


Info...

Billions - Billions
Sezon 3 - Epizodów 12
gatunek: Dramat / Kryminał
produkcja: USA
premiera 3 sezonu: 24.03.2018 - Świat
czas trwania: ok. 59 min.
twórcy serialu: Brian Koppelman, David Levien, Andrew Ross Sorkin

Ocena FilmWEB: 7,9/10 (1.914)
Ocena IMDb: 8,4/10 (22.938)

Opis...

Bobby "Axe" Axelrod (Damian Lewis) znów przegrał z prokuratorem generalnym Chuckiem Rhoadesem (Paul Giamatti). Milioner nie zamierza jednak rezygnować i już szuka sposobu, aby odbić się od dna. Ma też nadzieję zemścić się na swoim przeciwniku. W ich walce wszystkie chwyty zdają się dozwolone. Przedstawiciel wymiaru sprawiedliwości i prominentny milioner po raz kolejny stają do bezpardonowej walki. Trzecia seria opowiadająca o starciu dwóch silnych osobowości, które zagrali nominowany do Oscara za "Człowieka ringu" Paul Giamatti i laureat Złotego Globu za "Homeland" Damian Lewis. W trzecim sezonie w gościnnej roli wystąpi także John Malkovich, dwukrotny kandydat do Nagrody Akademii.

http://www.filmweb.pl/serial/Billions-2016-717910
http://www.imdb.com/title/tt4270492/

Obsada...

Damian Lewis - Bobby "Axe" Axelrod
Paul Giamatti - Chuck Rhodes
Maggie Siff - Wendy Rhoades
David Costabile - Mike "Wags" Wagner
Condola Rashad - Kate Sacher
Malin Akerman - Lara Axelrod

Dane techniczne na podstawie wybranego odcinka sezonu...

Format : Matroska
Format version : Version 4 / Version 2
File size : 854 MiB
Duration : 58 min 8 s
Overall bit rate mode : Variable
Overall bit rate : 2 054 kb/s
Encoded date : UTC 2018-05-14 15:29:12

Video
ID : 1
Format : AVC
Format/Info : Advanced Video Codec
Format profile : High at L3.1
Format settings : CABAC / 5 Ref Frames
Format settings, CABAC : Yes
Format settings, ReFrames : 5 frames
Codec ID : V_MPEG4/ISO/AVC
Duration : 58 min 8 s
Bit rate mode : Variable
Bit rate : 1 669 kb/s
Maximum bit rate : 4 500 kb/s
Width : 1 280 pixels
Height : 720 pixels
Display aspect ratio : 16:9
Frame rate mode : Constant
Frame rate : 23.976 (24000/1001) FPS
Color space : YUV
Chroma subsampling : 4:2:0
Bit depth : 8 bits
Scan type : Progressive
Bits/(PixelFrame) : 0.076
Stream size : 694 MiB (81)
Color range : Limited
Color primaries : BT.709
Transfer characteristics : BT.709
Matrix coefficients : BT.709

Audio
ID : 2
Format : AC-3
Format/Info : Audio Coding 3
Codec ID : A_AC3
Duration : 58 min 8 s
Bit rate mode : Constant
Bit rate : 384 kb/s
Channel(s) : 2 channels
Channel positions : Front: L R
Sampling rate : 48.0 kHz
Frame rate : 31.250 FPS (1536 SPF)
Bit depth : 16 bits
Compression mode : Lossy
Stream size : 160 MiB (19)
Language : Polish
Service kind : Complete Main
 


Aby dodać komentarz należy się zalogować

Logowanie logowanie

Twoja ocena
Podobne torrenty
Billions [S02E05] [480p] [AMZN] [WEBRip] [AC3] [XviD-Ralf] [Lektor PL]    Billions 2018 [S03E04] [720p AMZN WEB DL H 264 AC3] [Lektor PL]    Billions [S01E04] [480p] [HDTV] [AC3] [XviD-Ralf] [Lektor PL]    Billions [S03E06] [480p] [AMZN] [WEB-DL] [DD2 0] [XviD-Ralf] [Lektor PL]

Billions [S02E05] [480p] [AMZN] [WEBRip] [AC3] [XviD-Ralf] [Lektor PL]

Billions 2018 [S03E04] [720p AMZN WEB DL H 264 AC3] [Lektor PL]

Billions [S01E04] [480p] [HDTV] [AC3] [XviD-Ralf] [Lektor PL]

Billions [S03E06] [480p] [AMZN] [WEB-DL] [DD2.0] [XviD-Ralf] [Lektor PL]




Shoutbox (zawartość shoutboxa widoczna dla zalogowanych użytkowników)


Żaden z plików nie znajduje się na serwerze. Torrenty są własnością użytkowników. Administrator serwisu nie może ponieść konsekwencji za to co użytkownicy wstawiają, lub za to co czynią na stronie. Nie możesz używać tego serwisu do rozpowszechniania lub ściągania materiałów do których nie masz odpowiednich praw lub licencji. Użytkownicy odpowiedzialni są za przestrzeganie tych zasad. profil torrentcity.pl