Barry 2018 [S01E08] [720p AMZN WEB DL H 264 AC3] [Lektor PL] torrent

 
Barry 2018 [S01E08] [720p AMZN WEB DL H 264 AC3] [Lektor PL] torrent


Pozycję wystawił:
Ishimura
Dodano:17.05.2018
Kategoria:Seriale
Rozmiar:658.82 MB
Seedów:6
Peerów:4
Pobrań:245

Barry 2018 [S01E08] [720p AMZN WEB DL H 264 AC3] [Lektor PL] torrent


Info...

Barry - Barry
Sezon 1 - Epizodów 8
gatunek: Komedia
produkcja: USA
premiera: 25 marca 2018 - Świat
czas trwania: ok. 30 min.
reżyseria: Bill Hader, Alec Berg, Maggie Carey
scenariusz: Duffy Boudreau, Elizabeth Sarnoff, Sarah Solemani

Ocena FilmWEB: 7/10 (155)
Ocena IMDb: 8/10 (2251)

Opis...

Serialowa czarna komedia z Billem Haderem w roli głównej o perypetiach niskobudżetowego płatnego zabójcy, który niespodziewanie rozpoczyna przygodę z aktorstwem w Los Angeles.

Barry (Bill Hader) jest w depresji, czuje się samotny i całkowicie wypalony. Na życie zarabia jako płatny zabójca z dolnej półki, co nie poprawia jego sytuacji. Nie ma ochoty na kolejne zlecenie, ale zgadza się na realizację nowej roboty w Los Angeles, gdzie ma zająć się młodym, aspirującym aktorem. Podążając za swoim celem, mężczyzna trafia na spotkanie lokalnej grupy teatralnej. Ku swojemu zaskoczeniu odkrywa, że w ich towarzystwie czuje się dobrze i nabiera przekonania, że chciałby zerwać ze starym życiem. Pozostaje tylko jeden problem - jak to zrobić?

http://www.filmweb.pl/serial/Barry-2018-767036
http://www.imdb.com/title/tt5348176/

Obsada...

Bill Hader - Barry Berkman
Stephen Root - Fuches
Sarah Goldberg - Sally Reed
Henry Winkler - Cousineau
Glenn Fleshler - Goran Pazer
Anthony Carrigan - NoHo Hank
Darrell Britt-Gibson - Jermaine
Andy Carey - Eric
Alejandro Furth - Antonio
Kirby Howell-Baptiste - Sasha Smith

Dane techniczne...

Format : Matroska
Format version : Version 4 / Version 2
File size : 659 MiB
Duration : 32 min 33 s
Overall bit rate mode : Variable
Overall bit rate : 2 829 kb/s
Encoded date : UTC 2018-05-14 16:11:55

Video
ID : 1
Format : AVC
Format/Info : Advanced Video Codec
Format profile : High at L3.1
Format settings : CABAC / 5 Ref Frames
Format settings, CABAC : Yes
Format settings, ReFrames : 5 frames
Codec ID : V_MPEG4/ISO/AVC
Duration : 32 min 33 s
Bit rate mode : Variable
Bit rate : 2 444 kb/s
Maximum bit rate : 4 500 kb/s
Width : 1 280 pixels
Height : 720 pixels
Display aspect ratio : 16:9
Frame rate mode : Constant
Frame rate : 23.976 (24000/1001) FPS
Color space : YUV
Chroma subsampling : 4:2:0
Bit depth : 8 bits
Scan type : Progressive
Bits/(PixelFrame) : 0.111
Stream size : 569 MiB (86)
Color range : Limited
Color primaries : BT.709
Transfer characteristics : BT.709
Matrix coefficients : BT.709

Audio
ID : 2
Format : AC-3
Format/Info : Audio Coding 3
Codec ID : A_AC3
Duration : 32 min 33 s
Bit rate mode : Constant
Bit rate : 384 kb/s
Channel(s) : 2 channels
Channel positions : Front: L R
Sampling rate : 48.0 kHz
Frame rate : 31.250 FPS (1536 SPF)
Bit depth : 16 bits
Compression mode : Lossy
Stream size : 89.4 MiB (14)
Language : Polish
Service kind : Complete Main
 


Aby dodać komentarz należy się zalogować

Logowanie logowanie

Twoja ocena
Podobne torrenty
Barry *2016* [WEBRip] [XvID-lapka12345] [Lektor PL]    Someone Marry Barry *2014* [1080p] [WEB-DL] [x264-PHD] [ENG] [jans12]    Barry Munday (2010) [BDRip XviD-BiDA][Lektor PL][UL/PS] *1 LINK*    Barry Seal: Król przemytu - American Made *2017* [BDRip] [XviD-KiT] [Lektor PL]

Barry *2016* [WEBRip] [XvID-lapka12345] [Lektor PL]

Someone Marry Barry *2014* [1080p] [WEB-DL] [x264-PHD] [ENG] [jans12]

Barry Munday (2010) [BDRip.XviD-BiDA][Lektor PL][UL/PS] *1 LINK*

Barry Seal: Król przemytu - American Made *2017* [BDRip] [XviD-KiT] [Lektor PL]




Shoutbox (zawartość shoutboxa widoczna dla zalogowanych użytkowników)


Żaden z plików nie znajduje się na serwerze. Torrenty są własnością użytkowników. Administrator serwisu nie może ponieść konsekwencji za to co użytkownicy wstawiają, lub za to co czynią na stronie. Nie możesz używać tego serwisu do rozpowszechniania lub ściągania materiałów do których nie masz odpowiednich praw lub licencji. Użytkownicy odpowiedzialni są za przestrzeganie tych zasad. profil torrentcity.pl