Geostorm *2017* (720p.WEB-DL.DD5.1.H264) [FGT] [ENG] torrent

 
Geostorm *2017* (720p.WEB-DL.DD5.1.H264) [FGT] [ENG] torrent


Pozycję wystawił:
Ishimura
Dodano:12.02.2018
Kategoria:x264
Rozmiar:3.36 GB
Seedów:0
Peerów:0
Pobrań:0

Geostorm *2017* (720p.WEB-DL.DD5.1.H264) [FGT] [ENG] torrent


Produkcja: USA Gatunek: Katastroficzny Premiera: 20 października 2017 (Polska), 12 października 2017 (świat)
Reżyseria: Dean Devlin Scenariusz: Dean Devlin, Paul Guyot
..::(Opis)::..
Kiedy katastrofalne w skutkach zmiany klimatu zaczynają zagrażać istnieniu Ziemi, rządy wszystkich państw świata jednoczą siły i tworzą program o kryptonimie Dutch Boy Program. Obejmuje on sieć satelitów otaczających całą planetę, które uzbrojono w technologie z dziedziny geoinżynierii zaprojektowane, aby powstrzymywać powstawanie klęsk żywiołowych. Po dwóch latach niezakłóconego działania system ochronny zaczyna szwankować. Zadanie usunięcia awarii zostaje powierzone dwóm braciom, którzy od dawna nie utrzymują ze sobą kontaktu. Muszą oni zdążyć rozwiązać problem, zanim olbrzymich rozmiarów geoburza pochłonie całą planetę.
..::(Obsada)::..
★ Gerard Butler .... Jake Lawson
★ Jim Sturgess .... Max Lawson
★ Abbie Cornish .... Sarah Wilson
★ Alexandra Maria Lara .... Ute Fassbinder
★ Daniel Wu .... Cheng Long
★ Eugenio Derbez .... Al Hernandez
★ Amr Waked .... Ray Dussette
★ Adepero Oduye .... Eni Adisa
..::(Dane Techniczne)::..
Video
ID : 1
Format : AVC
Format/Info : Advanced Video Codec
Format profile : Main@L3.1
Format settings : 2 Ref Frames
Format settings, CABAC : No
Format settings, ReFrames : 2 frames
Codec ID : V_MPEG4/ISO/AVC
Duration : 1 h 49 min
Bit rate : 4 020 kb/s
Width : 1 280 pixels
Height : 530 pixels
Display aspect ratio : 2.40:1
Frame rate mode : Constant
Frame rate : 23.976 (23976/1000) FPS
Color space : YUV
Chroma subsampling : 4:2:0
Bit depth : 8 bits
Scan type : Progressive
Bits/(Pixel*Frame) : 0.247
Stream size : 3.06 GiB (91%)
Title : Geostorm.2017.720p.WEB-DL.XviD.AC3-FGT
Language : English
Default : Yes
Forced : No
Color range : Limited
Color primaries : BT.709
Transfer characteristics : BT.709
Matrix coefficients : BT.709

Audio
ID : 2
Format : AC-3
Format/Info : Audio Coding 3
Codec ID : A_AC3
Duration : 1 h 49 min
Bit rate mode : Constant
Bit rate : 384 kb/s
Channel(s) : 6 channels
Channel positions : Front: L C R, Side: L R, LFE
Sampling rate : 48.0 kHz
Frame rate : 31.250 FPS (1536 SPF)
Bit depth : 16 bits
Compression mode : Lossy
Stream size : 300 MiB (9%)
Title : Geostorm.2017.720p.WEB-DL.XviD.AC3-FGT
Language : English
Service kind : Complete Main
Default : Yes
Forced : No

Menu
00:00:00.000 : en:1
00:08:33.000 : en:2
00:16:51.000 : en:3
00:27:19.000 : en:4
00:39:12.000 : en:5
00:48:47.000 : en:6
01:00:25.000 : en:7
01:11:00.000 : en:8
01:19:14.000 : en:9
01:30:07.000 : en:10
01:40:25.000 : en:11
 


Aby dodać komentarz należy się zalogować

Logowanie logowanie

Twoja ocena
Podobne torrenty
Geostorm *2017* [480p] [HC] [HDRip] [AC3] [XViD-MORS] [Napisy PL]    Lorne Balfe - Geostorm (Original Motion Picture Soundtrack) (2017) [FLAC]    Geostorm *2017* [720p] [BluRay] [AC3] [x264-KiT] [Lektor PL]    Geostorm *2017* [BDRip] [XviD-KiT] [Lektor PL]

Geostorm *2017* [480p] [HC] [HDRip] [AC3] [XViD-MORS] [Napisy PL]

Lorne Balfe - Geostorm (Original Motion Picture Soundtrack) (2017) [FLAC]

Geostorm *2017* [720p] [BluRay] [AC3] [x264-KiT] [Lektor PL]

Geostorm *2017* [BDRip] [XviD-KiT] [Lektor PL]




Shoutbox (zawartość shoutboxa widoczna dla zalogowanych użytkowników)


Żaden z plików nie znajduje się na serwerze. Torrenty są własnością użytkowników. Administrator serwisu nie może ponieść konsekwencji za to co użytkownicy wstawiają, lub za to co czynią na stronie. Nie możesz używać tego serwisu do rozpowszechniania lub ściągania materiałów do których nie masz odpowiednich praw lub licencji. Użytkownicy odpowiedzialni są za przestrzeganie tych zasad. profil torrentcity.pl