Chris Rea-Montreux Jazz Festival (2014)[HDTVRip 1080p x264 AC3][Eng] torrent

 
Chris Rea-Montreux Jazz Festival (2014)[HDTVRip 1080p x264 AC3][Eng] torrent


Pozycję wystawił:
Ishimura
Dodano:07.02.2018
Kategoria:Teledyski
Rozmiar:7.00 GB
Seedów:0
Peerów:0
Pobrań:0

Chris Rea-Montreux Jazz Festival (2014)[HDTVRip 1080p x264
AC3][Eng] torrent


http://i.imgur.com/p3pJIFv.jpg

Plik zawiera Sample.

data: 2014
gatunek: Blues, rock, pop
reżyseria: Julian Nicole-Kay
wydano: Szwajcaria
czas: 00:50:42

opis:

Christopher Anton Rea (born 4 March 1951) is an English singer-songwriter and guitarist,
recognisable for his distinctive, husky voice and slide guitar playing.The British Hit Singles & Albums
stated that Rea was "one of the most popular UK singer-songwriters of the late 1980s. He was already
a major European star by the time he finally cracked the UK Top 10 with his 18th chart entry;
"The Road to Hell (Part 2)". As of 2009, he has sold more than 30 million albums worldwide.

more:

https://en.wikipedia.org/wiki/Chris_Rea

Nad brzegiem Jeziora Genewskiego już po raz 48 odbył się słynny Montreux Jazz Festival,
a do 19 lipca było kilkadziesiąt legendarnych koncertów. Festiwal jazzowy w szwajcarskim
Montreux trwał dwa tygodnie. W dużej sali w jeden z wieczorów wystąpił haryzmatyczny gitarzysta
i piosenkarz Chrisa Rea, który wszedł już do panteonu legend.

Christopher Anton "Chris" Rea (ur. 4 marca 1951 w Middlesbrough), brytyjski gitarzysta, piosenkarz,
autor tekstów. Rea sprzedał ponad 30 milionów egzemplarzy swoich płyt na całym świecie.

Chris Rea zaczynał w 1973 roku, w lokalnym zespole Magdalene. Zastąpił Davida Coverdale'a, który odszedł
do Deep Purple. W 1975 roku grupa zmieniła nazwę na Beautiful Losers i wygrała krajowy konkurs talentów.
Dwa lata później Rea opuścił zespół i rozpoczął karierę solową.

więcej:

https://pl.wikipedia.org/wiki/Chris_Rea

http://i.imgur.com/LO2yXi5.jpg
http://i.imgur.com/84o19h7.jpg
http://i.imgur.com/9sl675P.jpg
http://i.imgur.com/omelNfn.jpg

tracklist:

1. Last Open Road
2. Long Gone
3. Where the Blues Come From
4. Josephine
5. The Truth
6. 'Til The Morning Sun Shines on My Love and Me
7. Still So Far to Go
8. Stainsby Girls
9. The Road to Hell

dane techniczne:

Chris Rea-Montreux Jazz Festival (2014)-alE13.mkv
Format : Matroska
Format version : Version 4 / Version 2
File size : 6.91 GiB
Duration : 50 min
Overall bit rate mode : Variable
Overall bit rate : 19.5 Mb/s
Movie name : Chris Rea - Montreux Jazz Festival (2014)-alE13
Encoded date : UTC 2017-11-13 06:20:49
Writing application : mkvmerge v8.1.0 ('Psychedelic Postcard') 64bit
Writing library : libebml v1.3.1 + libmatroska v1.4.2
Cover : Yes
Attachments : Cover.jpg

Video
ID : 1
Format : AVC
Format/Info : Advanced Video Codec
Format profile : High@L4
Format settings, CABAC : Yes
Format settings, ReFrames : 3 frames
Codec ID : V_MPEG4/ISO/AVC
Duration : 50 min
Bit rate mode : Variable
Bit rate : 19.1 Mb/s
Maximum bit rate : 20.0 Mb/s
Width : 1 920 pixels
Height : 1 080 pixels
Display aspect ratio : 16:9
Frame rate mode : Constant
Frame rate : 30.000 FPS
Standard : PAL
Color space : YUV
Chroma subsampling : 4:2:0
Bit depth : 8 bits
Scan type : Progressive
Bits/(Pixel*Frame) : 0.307
Stream size : 6.77 GiB (98%)
Title : Chris Rea - Montreux Jazz Festival (2014)-alE13
Language : English
Default : Yes
Forced : No
Color range : Limited
Color primaries : BT.709
Transfer characteristics : BT.709
Matrix coefficients : BT.709

Audio
ID : 2
Format : AC-3
Format/Info : Audio Coding 3
Mode extension : CM (complete main)
Format settings, Endianness : Big
Codec ID : A_AC3
Duration : 50 min
Bit rate mode : Constant
Bit rate : 384 kb/s
Channel(s) : 6 channels
Channel positions : Front: L C R, Side: L R, LFE
Sampling rate : 48.0 kHz
Frame rate : 31.250 FPS (1536 spf)
Compression mode : Lossy
Stream size : 139 MiB (2%)
Title : Chris Rea - Montreux Jazz Festival (2014)-alE13_AC3
Language : English
Default : Yes
Forced : No

Menu
00:00:00.000 : :Last Open Road
00:05:34.623 : :Long Gone
00:09:17.804 : :Where the Blues Come From
00:14:35.899 : :Josephine
00:20:19.870 : :The Truth
00:23:28.955 : :Til The Morning Sun Shines on My Love and Me
00:29:38.324 : :Still So Far to Go
00:34:44.667 : :Stainsby Girls
00:42:00.823 : :The Road to Hell
 


Aby dodać komentarz należy się zalogować

Logowanie logowanie

Twoja ocena
Podobne torrenty
VA - 10 Great R&B Christmas Songs *2012* [mp3@320kbps] [AgusiQ] ♥    Chris Brown-Graffiti (Deluxe Edition Bonus Tracks) 2009 MP3 VBRKbps    Beethoven - Świąteczna przygoda - Beethoven's Christmas Adventure *2011* [DVDRiP XViD-VISUALiSE] [ENG] [AgusiQ] ♥    VA - More Christmas (2013) [mp3@256kbps]

VA - 10 Great R&B Christmas Songs *2012* [mp3@320kbps] [AgusiQ] ♥

Chris Brown-Graffiti (Deluxe Edition Bonus Tracks) 2009 MP3 VBRKbps

Beethoven - Świąteczna przygoda - Beethoven\'s Christmas Adventure *2011* [DVDRiP.XViD-VISUALiSE] [ENG] [AgusiQ] ♥

VA - More Christmas (2013) [mp3@256kbps]




Shoutbox (zawartość shoutboxa widoczna dla zalogowanych użytkowników)


Żaden z plików nie znajduje się na serwerze. Torrenty są własnością użytkowników. Administrator serwisu nie może ponieść konsekwencji za to co użytkownicy wstawiają, lub za to co czynią na stronie. Nie możesz używać tego serwisu do rozpowszechniania lub ściągania materiałów do których nie masz odpowiednich praw lub licencji. Użytkownicy odpowiedzialni są za przestrzeganie tych zasad. profil torrentcity.pl