Królestwo Gladiatorów - Kingdom Of Gladiators *2011* [DVDRip.XviD] [ENG] (misiu1313) torrent

 
Królestwo Gladiatorów - Kingdom Of Gladiators *2011* [DVDRip.XviD] [ENG] (misiu1313) torrent


Pozycję wystawił:
misiu1313
Dodano:11.10.2011
Kategoria:DivX / XviD
Rozmiar:713.62 MB
Seedów:
Peerów:
Pobrań:

Królestwo Gladiatorów - Kingdom Of Gladiators *2011*
[DVDRip.XviD] [ENG] (misiu1313) torrent

[Fantasy, Przygodowy, Akcja]



Produkcja.....: USA, Włochy
Gatunek.......: Fantasy, Przygodowy, Akcja
Data premiery.: 27.01.2011 [Świat]
Reżyseria.....: Stefano Milla
Scenariusz....: Stefano Milla, Marco Viola
Czas trwania..: 80 min.
More..........: http://www.imdb.com/title/tt1786497


"""""""""""""""""""""""" OPIS"""""""""""""""""""""""""""""""

Rządzący królestwem władca zawiera pakt ze starożytnym demonem. Po wielu latach szczęśliwych rządów demon zgłasza się po duszę króla, który postanawia użyć grupy gladiatorów do obrony swojego królestwa.

"""""""""""""""""""""""" OBSADA """"""""""""""""""""""""""""

Maurizio Corigliano
Sharon Fryer
Leroy Kincaid Kayne
Suzi Lorraine Hel
Bryan Murphy King Wolfkahn
Matt Polinsky Gunnar
Annie Social Teela

"""""""""""""""""""""" DANE TECHNICZNE """""""""""""""""""""

!!! SAMPLE !!!
Audio.....: Angielskie
Napisy....: Brak
Format : AVI
Format/Info : Audio Video Interleave
File size : 695 MiB
Duration : 1h 20mn
Overall bit rate : 1 200 Kbps
Writing application : VirtualDubMod 1.5.10.2 (build 2540/release)
Writing library : VirtualDubMod build 2540/release
Video
ID : 0
Format : MPEG-4 Visual
Format profile : Advanced Simple@L5
Format settings, BVOP : Yes
Format settings, QPel : No
Format settings, GMC : No warppoints
Format settings, Matrix : Default (H.263)
Muxing mode : Packed bitstream
Codec ID : XVID
Codec ID/Hint : XviD
Duration : 1h 20mn
Bit rate : 1 061 Kbps
Width : 592 pixels
Height : 320 pixels
Display aspect ratio : 1.850
Frame rate : 25.000 fps
Color space : YUV
Chroma subsampling : 4:2:0
Bit depth : 8 bits
Scan type : Progressive
Bits/(Pixel*Frame) : 0.224
Stream size : 614 MiB (88%)
Writing library : XviD 1.2.1 (UTC 2008-12-04)
Audio
ID : 1
Format : MPEG Audio
Format version : Version 1
Format profile : Layer 3
Mode : Joint stereo
Mode extension : MS Stereo
Codec ID : 55
Codec ID/Hint : MP3
Duration : 1h 20mn
Bit rate mode : Variable
Bit rate : 128 Kbps
Channel(s) : 2 channels
Sampling rate : 48.0 KHz
Stream size : 73.3 MiB (11%)
Alignment : Aligned on interleaves
Interleave, duration : 24 ms (0.60 video frame)
Interleave, preload duration : 145 ms
Writing library : LAME3.90.
Encoding settings : -m j -V 4 -q 2 -lowpass 17.6 --abr 128
Trailer
Screeny
krolestwo_gladiatorow_-_kingdom_of_gladiators_2011br_dvdrip_xvid_eng_misiu1313krolestwo_gladiatorow_-_kingdom_of_gladiators_2011br_dvdrip_xvid_eng_misiu1313krolestwo_gladiatorow_-_kingdom_of_gladiators_2011br_dvdrip_xvid_eng_misiu1313krolestwo_gladiatorow_-_kingdom_of_gladiators_2011br_dvdrip_xvid_eng_misiu1313
 


Aby dodać komentarz należy się zalogować

Logowanie logowanie

Twoja ocena
Podobne torrenty
Zakazane Królestwo / The Forbidden Kingdom (2oo8) [DVDRip][RMVB][Napisy PL]    Królestwo niebieskie / Kingdom of Heaven (2005) [DVD9] [PAL] [skuli]    Królestwo zwierząt - Animal Kingdom US [S02E01] [HDTV] [x264-AVS] [ENG]    Valentina Fast Królestwo ze szkła (2018) [ebook PL] [epub mobi pdf]

Zakazane Królestwo / The Forbidden Kingdom (2oo8) [DVDRip][RMVB][Napisy PL]

Królestwo niebieskie / Kingdom of Heaven (2005) [DVD9]  [PAL]   [skuli]

Królestwo zwierząt - Animal Kingdom US [S02E01] [HDTV] [x264-AVS] [ENG]

Valentina Fast   Królestwo ze szkła (2018) [ebook PL] [epub mobi pdf]




Shoutbox (zawartość shoutboxa widoczna dla zalogowanych użytkowników)


Żaden z plików nie znajduje się na serwerze. Torrenty są własnością użytkowników. Administrator serwisu nie może ponieść konsekwencji za to co użytkownicy wstawiają, lub za to co czynią na stronie. Nie możesz używać tego serwisu do rozpowszechniania lub ściągania materiałów do których nie masz odpowiednich praw lub licencji. Użytkownicy odpowiedzialni są za przestrzeganie tych zasad. profil torrentcity.pl