Calvin Marshall *2009* [BDRip.XviD-SPRiNTER] [ENG] [TC] [miguel] torrent

 
Calvin Marshall *2009* [BDRip.XviD-SPRiNTER] [ENG] [TC] [miguel] torrent


Pozycję wystawił:
miguel
Dodano:22.09.2010
Kategoria:DivX / XviD
Rozmiar:729.3 MB
Seedów:
Peerów:
Pobrań:

Calvin Marshall *2009* [BDRip.XviD-SPRiNTER] [ENG] [TC] [miguel] torrent

[Komedie]


Produkcja.....: USA
Gatunek.......: Komedia
Data premiery.: 03.2010 [Świat]
Reżyseria.....: Gary Lundgren
Scenariusz....: Gary Lundgren
Muzyka........: John Askew
Zdjęcia.......: Patrick Neary
Czas trwania..: 93 min.
More..........: http://www.imdb.com/title/tt0496673

Opis :
Film o człowieku który odnajduje swoje powołanie, cel w życiu granie w Baseball. Nie wychodzi mu to najlepiej ale jakoś sobie radzi.W tym czasie tez pozna dziewczynę która go oczarowuje swoim urokiem. Czy uda mu się ją oczarować swoimi zdolnościami, obejrzymy, zobaczymy.

Obsada :
Alex Frost ... Calvin Marshall
Jeremy Sumpter ... Caselli
Michelle Lombardo ... Tori Jensen
Steve Zahn ... Coach Little
Jane Adams ... June Marshall
Diedrich Bader ... Fred Deerfield
Andrew Wilson ... Ernie
Cynthia Watros ... Karen
Abraham Benrubi ... Coach Dewey
Catherine E. Coulson ... Carramae
Douglas Rowe ... Skeeter
Josh Fadem ... Simon
Rosie Thomas ... Sondra
Terri McMahon ... Mrs. Jensen
Jimmy Garcia ... Bryce

Dane Techniczne :
!!! SAMPLE !!!
Duration : 1h 33mn
Overall bit rate : 1 055 Kbps
Video
ID : 0
Format : MPEG-4 Visual
Format profile : Advanced Simple@L5
Format settings, BVOP : Yes
Format settings, QPel : No
Format settings, GMC : No warppoints
Format settings, Matrix : Default (H.263)
Codec ID : XVID
Codec ID/Hint : XviD
Duration : 1h 33mn
Bit rate : 882 Kbps
Width : 592 pixels
Height : 320 pixels
Display aspect ratio : 1.850
Frame rate : 23.976 fps
Color space : YUV
Chroma subsampling : 4:2:0
Bit depth : 8 bits
Scan type : Progressive
Bits/(Pixel*Frame) : 0.194
Stream size : 588 MiB (84%)
Writing library : XviD 1.1.2 (UTC 2006-11-01)
Audio
ID : 1
Format : MPEG Audio
Format version : Version 1
Format profile : Layer 3
Mode : Joint stereo
Mode extension : MS Stereo
Codec ID : 55
Codec ID/Hint : MP3
Duration : 1h 33mn
Bit rate mode : Variable
Bit rate : 160 Kbps
Minimum bit rate : 160 Kbps
Channel(s) : 2 channels
Sampling rate : 48.0 KHz
Stream size : 106 MiB (15%)
Alignment : Aligned on interleaves
Interleave, duration : 24 ms (0.58 video frame)
Interleave, preload duration : 150 ms
Writing library : LAME3.95
Encoding settings : -m j -V 4 -q 3 -lowpass 18 --vbr-old -b 160
Trailer
Screeny
calvin_marshall_2009_bdrip_xvid-sprinter_eng_tc_miguelcalvin_marshall_2009_bdrip_xvid-sprinter_eng_tc_miguelcalvin_marshall_2009_bdrip_xvid-sprinter_eng_tc_miguel
 


Aby dodać komentarz należy się zalogować

Logowanie logowanie

Twoja ocena
Podobne torrenty
Calvin Tucker's Redneck Jamboree [2009/ISO/ENG] [SHRiP]    Calvin Marshall *2009* [BRRip H264 Feel-Free][ENG][TC][wojtek2415]    Calvin Harris - 18 Months [Deluxe Edition] *2012* [mp3@320kbps] [AgusiQ] ♥    Calvin Marshall (2009) [BDRIP XVID] [LEKTOR PL][mix]

Calvin Tucker\'s Redneck Jamboree [2009/ISO/ENG] [SHRiP]

Calvin Marshall *2009* [BRRip.H264.Feel-Free][ENG][TC][wojtek2415]

Calvin Harris - 18 Months [Deluxe Edition] *2012* [mp3@320kbps] [AgusiQ] ♥

Calvin Marshall (2009) [BDRIP XVID] [LEKTOR PL][mix]




Shoutbox (zawartość shoutboxa widoczna dla zalogowanych użytkowników)


Żaden z plików nie znajduje się na serwerze. Torrenty są własnością użytkowników. Administrator serwisu nie może ponieść konsekwencji za to co użytkownicy wstawiają, lub za to co czynią na stronie. Nie możesz używać tego serwisu do rozpowszechniania lub ściągania materiałów do których nie masz odpowiednich praw lub licencji. Użytkownicy odpowiedzialni są za przestrzeganie tych zasad. profil torrentcity.pl