Paul McCartney And Wings: Rockshow (2013)[BDRip 1080p x264 AC3/DTS/PCM][Eng] torrent

 
Paul McCartney And Wings: Rockshow (2013)[BDRip 1080p x264  AC3/DTS/PCM][Eng] torrent


Pozycję wystawił:
Ishimura
Dodano:07.02.2018
Kategoria:Teledyski
Rozmiar:10.81 GB
Seedów:2
Peerów:2
Pobrań:20

Paul McCartney And Wings: Rockshow (2013)[BDRip 1080p x264
AC3/DTS/PCM][Eng] torrent


http://i.imgur.com/zgJSEzF.jpg

Audio DTS/PCM w osobnym pliku.
Plik zawiera Sample.

premiera: 27.01.2013
dystrybutor: MPL/Eagle Rock
producent: Scott Rodger, Paul McCartney
reżyseria: Jack Priestley
wytwórnia: MPL / Eagle Rock
gatunek: Rock, Koncert, Dokument
czas: 02:09:00

opis:

Rockshow is a 1980 concert film by Paul McCartney and Wings, filmed during the band's 1976
North American tour. The film features 30 songs from four concerts of the tour: New York,
on 25 May (four songs); Seattle, Washington, 10 June (five songs); and Los Angeles, California,
22 June (fifteen songs) and 23 June (six songs). Both the cover of the home video release
and McCartney himself in his intro to The McCartney Years DVD acknowledge only the Seattle concert,
however. These concerts were part of the 1975–76 Wings Over the World tour, which also produced
the triple live album Wings over America (1976) and the Wings Over the World television
documentary (1979).

more:

https://en.wikipedia.org/wiki/Rockshow

W 1976 roku Wings podjęło się światowej trasy koncertowej, którą ogladało ponad 2 miliony
ludzi w dziesięciu krajach, wynikiem czego jest trzyczęściowy album "Wings over America".
Punktem kulminacyjnym tej trasy był niesamowity występ na Kingdome w Seattle w Waszyngtonie,
gdzie 67 tys. fanów słuchało "Wings" wykonujących niektóre z ich najlepszych kawałków. Teraz
po raz pierwszy pełny koncert jest dostępny na DVD i Blu-ray jest pełni odrestaurowany
i zremasterowany z oryginalnych materiałów filmowych i audio.

http://i.imgur.com/k72ZvJz.jpg
http://i.imgur.com/Eml5aOW.jpg
http://i.imgur.com/YGLvFkO.jpg
http://i.imgur.com/H6mYMdu.jpg

tracklist:

01. Venus And Mars / Rock Show / Jet
02. Let Me Roll It
03. Spirits Of Ancient Egypt
04. Medicine Jar
05. Maybe I m Amazed
06. Call Me Back Again
07. Lady Madonna
08. The Long And Winding Road
09. Live And Let Die
10. Picasso s Last Words
11. Richard Cory
12. Bluebird
13. I ve Just Seen A Face
14. Blackbird
15. Yesterday
16. You Gave Me The Answer
17. Magneto And Titanium Man
18. Go Now
19. My Love
20. Listen To What The Man Said
21. Let Em In
22. Time To Hide
23. Silly Love Songs
24. Beware My Love
25. Letting Go
26. Band on the Run
27. Hi Hi Hi
28. Soily

dane techniczne:

audio:

Paul McCartney And Wings - Rockshow (2013)-alE13_DTS_PCM (1).mka

Hash: D98F3FBF88CE8983
Format: Matroska
Czas: 02:09:28.352
Rozmiar: 2.76 GiB (2958416367)

Audio (0):
Kodek: (DTS) DTS
Format: DTS
Kanały: 6 channels
BitRate: 1 509 kb/s
Tytuł: DTS 5.1
Język: English

Audio (1):
Kodek: (PCM) PCM
Format: PCM
Kanały: 2 channels
BitRate: 1 536 kb/s
Tytuł: PCM 2.0
Język: English

video:

Paul McCartney And Wings-Rockshow (2013)-alE13.mkv
Format : Matroska
Format version : Version 4 / Version 2
File size : 8.01 GiB
Duration : 2 h 9 min
Overall bit rate : 8 862 kb/s
Movie name : Paul McCartney And Wings: Rockshow (2013)-alE13
Encoded date : UTC 2017-11-23 07:06:02
Writing application : mkvmerge v8.1.0 ('Psychedelic Postcard') 64bit
Writing library : libebml v1.3.1 + libmatroska v1.4.2
Cover : Yes
Attachments : Cover.jpg

Video
ID : 1
Format : AVC
Format/Info : Advanced Video Codec
Format profile : High@L4.1
Format settings, CABAC : Yes
Format settings, ReFrames : 2 frames
Codec ID : V_MPEG4/ISO/AVC
Duration : 2 h 9 min
Bit rate : 8 219 kb/s
Width : 1 920 pixels
Height : 1 032 pixels
Display aspect ratio : 1.85:1
Frame rate mode : Constant
Frame rate : 23.976 (24000/1001) FPS
Color space : YUV
Chroma subsampling : 4:2:0
Bit depth : 8 bits
Scan type : Progressive
Bits/(Pixel*Frame) : 0.173
Stream size : 7.43 GiB (93%)
Title : Paul McCartney And Wings: Rockshow (2013)-alE13
Writing library : x264 core 142
Default : Yes
Forced : No
Color range : Limited
Color primaries : BT.709
Transfer characteristics : BT.709
Matrix coefficients : BT.709

Audio
ID : 2
Format : AC-3
Format/Info : Audio Coding 3
Mode extension : CM (complete main)
Format settings, Endianness : Big
Codec ID : A_AC3
Duration : 2 h 9 min
Bit rate mode : Constant
Bit rate : 640 kb/s
Channel(s) : 6 channels
Channel positions : Front: L C R, Side: L R, LFE
Sampling rate : 48.0 kHz
Frame rate : 31.250 FPS (1536 spf)
Compression mode : Lossy
Stream size : 593 MiB (7%)
Title : Paul McCartney And Wings: Rockshow (2013)-alE13_AC3
Language : English
Default : No
Forced : No

Menu
00:00:00.000 : en:Chapter 01
00:10:39.388 : en:Chapter 02
00:14:34.164 : en:Chapter 03
00:19:06.645 : en:Chapter 04
00:23:21.817 : en:Chapter 05
00:29:06.035 : en:Chapter 06
00:34:22.560 : en:Chapter 07
00:38:37.023 : en:Chapter 08
00:43:12.631 : en:Chapter 09
00:47:15.541 : en:Chapter 10
00:49:34.763 : en:Chapter 11
00:52:35.652 : en:Chapter 12
00:56:44.401 : en:Chapter 13
00:59:13.883 : en:Chapter 14
01:02:13.646 : en:Chapter 15
01:04:40.376 : en:Chapter 16
01:07:11.902 : en:Chapter 17
01:10:42.655 : en:Chapter 18
01:14:42.603 : en:Chapter 19
01:19:09.703 : en:Chapter 20
01:23:01.059 : en:Chapter 21
01:28:01.150 : en:Chapter 22
01:33:00.032 : en:Chapter 23
01:39:18.869 : en:Chapter 24
01:46:31.635 : en:Chapter 25
01:51:01.863 : en:Chapter 26
01:57:43.473 : en:Chapter 27
02:01:35.454 : en:Chapter 28
 


Aby dodać komentarz należy się zalogować

Logowanie logowanie

Twoja ocena
Podobne torrenty
Sean Paul - She Doesn't Mind *2011* (Official Music Video) [720p] [ mp4]    Systemy baz danych Beynon-Davies Paul [pdf] [pl]    Paul van Dyk & HR Orchestra live in Frankfurt (13 02 2009) [mp3@192Kbs]    Johnson Paul - Historia Żydów [pdf] [PL]

Sean Paul - She Doesn\'t Mind *2011* (Official Music Video) [720p] [.mp4]

Systemy baz danych Beynon-Davies Paul  [pdf] [pl]

Paul van Dyk & HR Orchestra live in Frankfurt (13.02.2009) [mp3@192Kbs]

Johnson Paul - Historia Żydów [pdf] [PL]




Shoutbox (zawartość shoutboxa widoczna dla zalogowanych użytkowników)


Żaden z plików nie znajduje się na serwerze. Torrenty są własnością użytkowników. Administrator serwisu nie może ponieść konsekwencji za to co użytkownicy wstawiają, lub za to co czynią na stronie. Nie możesz używać tego serwisu do rozpowszechniania lub ściągania materiałów do których nie masz odpowiednich praw lub licencji. Użytkownicy odpowiedzialni są za przestrzeganie tych zasad. profil torrentcity.pl