Rings (2017) [MULTi.1080p] [BluRay.x264] [DTS.AC3-DENDA] [Lektor i Napisy PL] torrent

 
Rings (2017) [MULTi.1080p] [BluRay.x264] [DTS.AC3-DENDA] [Lektor i Napisy PL] torrent


Pozycję wystawił:
Ishimura
Dodano:26.07.2017
Kategoria:x264
Rozmiar:12.24 GB
Seedów:3
Peerów:2
Pobrań:418

Rings (2017) [MULTi.1080p] [BluRay.x264] [DTS.AC3-DENDA] [Lektor i
Napisy PL] torrent


...( Info )...

Produkcja: USA
Gatunek: Horror
Premiera: 3 lutego 2017 (Polska), 1 lutego 2017 (świat)
Reżyseria: F. Javier Gutiérrez
Scenariusz: David Loucka, Jacob Estes, Akiva Goldsman

...( Opis )...

Nowy rozdział znakomitej i przerażającej serii horrorów. Młoda kobieta, martwiąc się o swego chłopaka, zafascynowanego INFOrmacjami o tajemniczym wideo, po obejrzeniu którego giną ludzie, decyduje się obejrzeć film za niego. Wkrótce odkrywa przerażającą prawdę: INFOrmacje są prawdziwe, a wideo zawiera tajemniczy przekaz...

...( Obsada )...

Matilda Anna Ingrid Lutz .... Julia
Alex Roe .... Holt
Johnny Galecki .... Gabriel
Vincent D`Onofrio .... Burke
Aimee Teegarden .... Skye
Bonnie Morgan .... Samara
Chuck David Willis .... Blue
Patrick R. Walker .... Jamal

...( Dane Techniczne )...

Format : Matroska
Format version : Version 2
File size : 12.2 GiB
Duration : 1 h 42 min
Overall bit rate : 17.1 Mb/s
Movie name : Rings.2017.MULTi.1080p.BluRay.x264.DTS.AC3-DENDA
Encoded date : UTC 2017-05-22 11:12:54
Writing application : mkvmerge v5.6.0 ('Kenya Kane') built on May 28 2012 06:47:39
Writing library : libebml v1.2.2 + libmatroska v1.3.0

Video
ID : 1
Format : AVC
Format/Info : Advanced Video Codec
Format profile : High@L4.1
Format settings, CABAC : Yes
Format settings, ReFrames : 4 frames
Muxing mode : Header stripping
Codec ID : V_MPEG4/ISO/AVC
Duration : 1 h 42 min
Bit rate : 15.0 Mb/s
Width : 1 920 pixels
Height : 1 080 pixels
Display aspect ratio : 16:9
Frame rate mode : Constant
Frame rate : 23.976 (24000/1001) FPS
Color space : YUV
Chroma subsampling : 4:2:0
Bit depth : 8 bits
Scan type : Progressive
Bits/(Pixel*Frame) : 0.302
Stream size : 10.5 GiB (85%)
Writing library : x264 core 132
Encoding settings : cabac=1 / ref=4 / deblock=1:0:0 / analyse=0x3:0x113 / me=hex / subme=7 / psy=1 / psy_rd=1,00:0,00 / mixed_ref=1 / me_range=16 / chroma_me=1 / trellis=1 / 8x8dct=1 / cqm=0 / deadzone=21,11 / fast_pskip=1 / chroma_qp_offset=-2 / threads=12 / lookahead_threads=4 / sliced_threads=0 / nr=0 / decimate=1 / interlaced=0 / bluray_compat=0 / constrained_intra=0 / bframes=8 / b_pyramid=2 / b_adapt=2 / b_bias=0 / direct=1 / weightb=1 / open_gop=0 / weightp=2 / keyint=240 / keyint_min=24 / scenecut=40 / intra_refresh=0 / rc_lookahead=50 / rc=2pass / mbtree=1 / bitrate=15000 / ratetol=1,0 / qcomp=0,60 / qpmin=3 / qpmax=69 / qpstep=4 / cplxblur=20,0 / qblur=0,5 / ip_ratio=1,40 / aq=1:1,00
Language : English
Default : Yes
Forced : No
Color range : Limited
Color primaries : BT.709
Transfer characteristics : BT.709
Matrix coefficients : BT.709

Audio #1
ID : 2
Format : AC-3
Format/Info : Audio Coding 3
Format settings, Endianness : Big
Muxing mode : Header stripping
Codec ID : A_AC3
Duration : 1 h 42 min
Bit rate mode : Constant
Bit rate : 640 kb/s
Channel(s) : 6 channels
Channel positions : Front: L C R, Side: L R, LFE
Sampling rate : 48.0 kHz
Frame rate : 31.250 FPS (1536 spf)
Bit depth : 16 bits
Compression mode : Lossy
Stream size : 468 MiB (4%)
Language : Polish
Service kind : Complete Main
Default : Yes
Forced : No

Audio #2
ID : 3
Format : DTS
Format/Info : Digital Theater Systems
Mode : 16
Format settings, Endianness : Big
Muxing mode : Header stripping
Codec ID : A_DTS
Duration : 1 h 42 min
Bit rate mode : Constant
Bit rate : 1 509 kb/s
Channel(s) : 6 channels
Channel positions : Front: L C R, Side: L R, LFE
Sampling rate : 48.0 kHz
Frame rate : 93.750 FPS (512 spf)
Bit depth : 24 bits
Compression mode : Lossy
Stream size : 1.08 GiB (9%)
Language : English
Default : No
Forced : No

Text #1
ID : 4
Format : UTF-8
Codec ID : S_TEXT/UTF8
Codec ID/Info : UTF-8 Plain Text
Language : Polish
Default : No
Forced : No

Text #2
ID : 5
Format : PGS
Muxing mode : zlib
Codec ID : S_HDMV/PGS
Codec ID/Info : Picture based subtitle format used on BDs/HD-DVDs
Language : English
Default : No
Forced : No
 


Aby dodać komentarz należy się zalogować

Logowanie logowanie

Twoja ocena
Podobne torrenty
The Lord of the Rings - Extended Edition Trilogy (2001-2003) [DVDRip XviD] [ Napisy PL]    Bruce Springsteen - The Promise *2010* [2CD] [mp3@320 kb/s] [TC] [FS] [bartek_m26]    Władca Pierścieni: Drużyna Pierścienia - The Lord of the Rings: The Fellowship of the Ring *2001* [1080p Bluray DTS m2ts] [ENG]    Dwoje do poprawki / Hope Springs *2012* [BDRip] [XviD-BiDA] [Lektor PL] [AgusiQ] ♥

The Lord of the Rings - Extended Edition Trilogy (2001-2003)  [DVDRip.XviD] [ Napisy PL]

Bruce Springsteen - The Promise *2010* [2CD] [mp3@320 kb/s] [TC] [FS] [bartek_m26]

Władca Pierścieni: Drużyna Pierścienia - The Lord of the Rings: The Fellowship of the Ring *2001* [1080p.Bluray.DTS.m2ts] [ENG]

Dwoje do poprawki / Hope Springs *2012* [BDRip] [XviD-BiDA]        [Lektor PL] [AgusiQ] ♥




Shoutbox (zawartość shoutboxa widoczna dla zalogowanych użytkowników)


Żaden z plików nie znajduje się na serwerze. Torrenty są własnością użytkowników. Administrator serwisu nie może ponieść konsekwencji za to co użytkownicy wstawiają, lub za to co czynią na stronie. Nie możesz używać tego serwisu do rozpowszechniania lub ściągania materiałów do których nie masz odpowiednich praw lub licencji. Użytkownicy odpowiedzialni są za przestrzeganie tych zasad. profil torrentcity.pl