75-7eventy 5ive (2007)-alE13[BDRip 1080p x264 AC3][Napisy PL/Dut][Eng] torrent

 
75-7eventy 5ive (2007)-alE13[BDRip 1080p x264 AC3][Napisy PL/Dut][Eng] torrent


Pozycję wystawił:
Ishimura
Dodano:12.07.2017
Kategoria:x264
Rozmiar:7.72 GB
Seedów:1
Peerów:1
Pobrań:0
pobierz torrent

75-7eventy 5ive (2007)-alE13[BDRip 1080p x264 AC3][Napisy
PL/Dut][Eng] torrent


http://i.imgur.com/a73iYYy.jpg

http://www.imdb.com/title/tt0462160/
http://www.filmweb.pl/film/7eventy+5ive-2007-238821

Plik zawiera Sample.

reżyseria: Brian Hooks,Deon Taylor
scenariusz: Brian Hooks,Vashon Nutt,Deon Taylor
gatunek: Horror
produkcja: USA
premiera: 24-08-2007
muzyka: Wyclef Jean
zdjęcia: Philip Lee
czas: 1h 38min

opis:

Finals at the prestigious University of Dreyskill are finally over and it's time to party.
"The Crew", as they are known by their peers and dorm mates, are invited to a rich classmate's
hideaway mansion high up in the hills of Colorado. What was supposed to be a weekend of fun
and relaxation quickly becomes a trip they will never forget... If they survive! A simple game
of prank scare phone calls becomes an intense game of survival and escape when one of the Crew
members accidentally calls the wrong person.

7eventy 5ive jest horrorem z 2007 roku wyreżyserowanym przez Briana Hooksa i Deona Taylora.
Ścieżka dźwiękowa powstała przy pomocy Wyclefa Jeana. Podczas pewnej imprezy w wielkim
domu grupa nastolatków postanawia się zabawić. Mają nawet już wymyśloną grę, której nazwa
brzmi 75. Gra polega na dzwonieniu do przypadkowych osób i próbie wystraszenia ich w ciągu
właśnie 75 sekund. Ten, któremu się to uda, zostaje zwycięzcą. Nie spodziewają się jednak,
że w niedługim czasie sami zostaną ofiarami wymyślonej przez siebie gry.

http://i.imgur.com/bD3f3na.jpg
http://i.imgur.com/javWcUJ.jpg
http://i.imgur.com/V5Dse6h.jpg
http://i.imgur.com/KTzvEiV.jpg

obsada:

Rutger Hauer, Gwendoline Yeo, Antwon Tanner

dane techniczne:

7eventy 5ive (2007)-alE13.mkv
Format : Matroska
Format version : Version 4 / Version 2
File size : 7.66 GiB
Duration : 1 h 38 min
Overall bit rate : 11.1 Mb/s
Movie name : 7eventy 5ive (2007)-alE13
Encoded date : UTC 2017-03-25 05:29:04
Writing application : mkvmerge v8.1.0 ('Psychedelic Postcard') 64bit
Writing library : libebml v1.3.1 + libmatroska v1.4.2
Cover : Yes
Attachments : cover.jpg

Video
ID : 1
Format : AVC
Format/Info : Advanced Video Codec
Format profile : High@L4.1
Format settings, CABAC : Yes
Format settings, ReFrames : 2 frames
Codec ID : V_MPEG4/ISO/AVC
Duration : 1 h 38 min
Bit rate : 10.5 Mb/s
Width : 1 920 pixels
Height : 800 pixels
Display aspect ratio : 2.40:1
Frame rate mode : Constant
Frame rate : 23.976 (24000/1001) FPS
Color space : YUV
Chroma subsampling : 4:2:0
Bit depth : 8 bits
Scan type : Progressive
Bits/(Pixel*Frame) : 0.285
Stream size : 7.22 GiB (94%)
Writing library : x264 core 142
Default : Yes
Forced : No
Color range : Limited
Color primaries : BT.709
Transfer characteristics : BT.709
Matrix coefficients : BT.709

Audio
ID : 2
Format : AC-3
Format/Info : Audio Coding 3
Mode extension : CM (complete main)
Format settings, Endianness : Big
Codec ID : A_AC3
Duration : 1 h 38 min
Bit rate mode : Constant
Bit rate : 640 kb/s
Channel(s) : 6 channels
Channel positions : Front: L C R, Side: L R, LFE
Sampling rate : 48.0 kHz
Frame rate : 31.250 FPS (1536 spf)
Compression mode : Lossy
Stream size : 450 MiB (6%)
Title : 7eventy 5ive (2007)-alE13_AC3
Language : English
Default : No
Forced : No

Text #1
ID : 3
Format : UTF-8
Codec ID : S_TEXT/UTF8
Codec ID/Info : UTF-8 Plain Text
Duration : 1 h 34 min
Bit rate : 40 b/s
Count of elements : 656
Stream size : 28.2 KiB (0%)
Title : 7eventy 5ive (2007)-alE13
Language : Polish
Default : Yes
Forced : No

Text #2
ID : 4
Format : UTF-8
Codec ID : S_TEXT/UTF8
Codec ID/Info : UTF-8 Plain Text
Duration : 1 h 34 min
Bit rate : 38 b/s
Count of elements : 605
Stream size : 26.7 KiB (0%)
Title : 7eventy 5ive (2007)-alE13
Language : Dutch
Default : No
Forced : No

Menu
00:00:00.000 : en:Chapter 01
00:06:06.654 : en:Chapter 02
00:09:33.822 : en:Chapter 03
00:13:01.278 : en:Chapter 04
00:18:33.944 : en:Chapter 05
00:23:38.790 : en:Chapter 06
00:29:20.508 : en:Chapter 07
00:33:59.368 : en:Chapter 08
00:40:32.554 : en:Chapter 09
00:44:42.344 : en:Chapter 10
00:49:12.448 : en:Chapter 11
00:54:31.684 : en:Chapter 12
00:59:12.340 : en:Chapter 13
01:05:15.494 : en:Chapter 14
01:09:44.261 : en:Chapter 15
01:14:25.291 : en:Chapter 16
01:19:21.465 : en:Chapter 17
01:24:59.175 : en:Chapter 18
01:29:57.725 : en:Chapter 19
01:34:55.897 : en:Chapter 20
 


Aby dodać komentarz należy się zalogować

Logowanie logowanie

Twoja ocena
Podobne torrenty
ULVER Bergtatt - Et Eeventyr i 5 Capitler [1995][mp3@320kbps]    Na niby / Eventyrland (2013) [480p] [BRRip] [XViD] [AC3-J25] [Lektor PL]    7eventy 5ive *2007* [DVDRip] [RMVB] [Napisy PL] [RMVBHunters]    Na niby / Eventyrland (2013) [BRRip XviD-B89] [Lektor PL]

ULVER Bergtatt - Et Eeventyr i 5 Capitler [1995][mp3@320kbps]

Na niby / Eventyrland (2013) [480p] [BRRip] [XViD] [AC3-J25] [Lektor PL]

7eventy 5ive *2007* [DVDRip] [RMVB] [Napisy PL] [RMVBHunters]

Na niby / Eventyrland (2013) [BRRip.XviD-B89] [Lektor PL]




Shoutbox (zawartość shoutboxa widoczna dla zalogowanych użytkowników)


Żaden z plików nie znajduje się na serwerze. Torrenty są własnością użytkowników. Administrator serwisu nie może ponieść konsekwencji za to co użytkownicy wstawiają, lub za to co czynią na stronie. Nie możesz używać tego serwisu do rozpowszechniania lub ściągania materiałów do których nie masz odpowiednich praw lub licencji. Użytkownicy odpowiedzialni są za przestrzeganie tych zasad. profil torrentcity.pl