Terrorysta-Ticker (2001)[BDRip 1080p x264 AC3/DTS][Lektor PL/Napisy Eng][Eng] torrent

 
Terrorysta-Ticker (2001)[BDRip 1080p x264  AC3/DTS][Lektor PL/Napisy Eng][Eng] torrent


Pozycję wystawił:
Ishimura
Dodano:12.07.2017
Kategoria:x264
Rozmiar:7.71 GB
Seedów:0
Peerów:2
Pobrań:0
pobierz torrent

Terrorysta-Ticker (2001)[BDRip 1080p x264 AC3/DTS][Lektor
PL/Napisy Eng][Eng] torrent


http://i.imgur.com/SUH3IQH.jpg

http://www.imdb.com/title/tt0196158/
http://www.filmweb.pl/film/Terrorysta-2001-11085

Plik zawiera Sample.

reżyseria: Albert Pyun
scenariusz: Paul B. Margolis
gatunek: Sensacyjny
produkcja: USA
premiera: 23-06-2001
muzyka: Serge Colbert
zdjęcia: Philip Alan Waters
czas: 1h 32min

opis:

After a San Francisco detective's partner is murdered by Northern Irish terrorists, the officer joins
the bomb squad in order to bring them to justice.

Kiedy policjant sekcji antynarkotykowej Ray Nettles traci swojego partnera, chce za wszelką cenę
wziąć udział w śledztwie, mającym wykryć sprawcę. Ponieważ przestępcą jest niezwykle groźny, doświadczony
i szalony konstruktor ładunków wybuchowych, Ray korzysta z pomocy saperów. Ich dowódca, Frank Glass ma
osobiste porachunki z Alexem Swanem, którego bomba już rok wcześniej zabiła jednego z saperów Glassa. Zaczyna
się pełna napięcia rozgrywka, której stawką jest życie niewinnych osób ginących w kolejnych wybuchach.

http://i.imgur.com/7n3h95A.jpg
http://i.imgur.com/H4sBYl1.jpg
http://i.imgur.com/SiDNdy8.jpg
http://i.imgur.com/FfFe1h0.jpg

obsada:

Tom Sizemore, Dennis Hopper, Steven Seagal

dane techniczne:

Ticker (2001)-alE13.mkv
Format : Matroska
Format version : Version 4 / Version 2
File size : 7.65 GiB
Duration : 1 h 32 min
Overall bit rate : 11.9 Mb/s
Movie name : Ticker (2001)-alE13
Encoded date : UTC 2017-03-25 13:12:29
Writing application : mkvmerge v8.1.0 ('Psychedelic Postcard') 64bit
Writing library : libebml v1.3.1 + libmatroska v1.4.2
Cover : Yes
Attachments : cover.jpg

Video
ID : 1
Format : AVC
Format/Info : Advanced Video Codec
Format profile : High@L4.1
Format settings, CABAC : Yes
Format settings, ReFrames : 2 frames
Codec ID : V_MPEG4/ISO/AVC
Duration : 1 h 31 min
Bit rate : 9 496 kb/s
Width : 1 920 pixels
Height : 1 080 pixels
Display aspect ratio : 16:9
Frame rate mode : Constant
Frame rate : 23.976 (24000/1001) FPS
Color space : YUV
Chroma subsampling : 4:2:0
Bit depth : 8 bits
Scan type : Progressive
Bits/(Pixel*Frame) : 0.191
Stream size : 6.10 GiB (80%)
Title : Ticker (2001)-alE13
Writing library : x264 core 142
Default : Yes
Forced : No
Color range : Limited
Color primaries : BT.709
Transfer characteristics : BT.709
Matrix coefficients : BT.709

Audio #1
ID : 2
Format : AC-3
Format/Info : Audio Coding 3
Mode extension : CM (complete main)
Format settings, Endianness : Big
Codec ID : A_AC3
Duration : 1 h 31 min
Bit rate mode : Constant
Bit rate : 448 kb/s
Channel(s) : 6 channels
Channel positions : Front: L C R, Side: L R, LFE
Sampling rate : 48.0 kHz
Frame rate : 31.250 FPS (1536 spf)
Compression mode : Lossy
Stream size : 295 MiB (4%)
Title : Ticker (2001)-alE13
Language : English
Default : No
Forced : No

Audio #2
ID : 3
Format : AC-3
Format/Info : Audio Coding 3
Mode extension : CM (complete main)
Format settings, Endianness : Big
Codec ID : A_AC3
Duration : 1 h 31 min
Bit rate mode : Constant
Bit rate : 448 kb/s
Channel(s) : 2 channels
Channel positions : Front: L R
Sampling rate : 48.0 kHz
Frame rate : 31.250 FPS (1536 spf)
Compression mode : Lossy
Stream size : 295 MiB (4%)
Title : Ticker (2001)-alE13
Language : Polish
Default : Yes
Forced : No

Audio #3
ID : 4
Format : DTS
Format/Info : Digital Theater Systems
Mode : 16
Format settings, Endianness : Big
Codec ID : A_DTS
Duration : 1 h 32 min
Bit rate mode : Constant
Bit rate : 1 509 kb/s
Channel(s) : 6 channels
Channel positions : Front: L C R, Side: L R, LFE
Sampling rate : 48.0 kHz
Frame rate : 93.750 FPS (512 spf)
Bit depth : 24 bits
Compression mode : Lossy
Delay relative to video : 11 ms
Stream size : 993 MiB (13%)
Title : Ticker (2001)-alE13_DTS
Language : English
Default : No
Forced : No
 


Aby dodać komentarz należy się zalogować

Logowanie logowanie

Twoja ocena
Shoutbox (zawartość shoutboxa widoczna dla zalogowanych użytkowników)


Żaden z plików nie znajduje się na serwerze. Torrenty są własnością użytkowników. Administrator serwisu nie może ponieść konsekwencji za to co użytkownicy wstawiają, lub za to co czynią na stronie. Nie możesz używać tego serwisu do rozpowszechniania lub ściągania materiałów do których nie masz odpowiednich praw lub licencji. Użytkownicy odpowiedzialni są za przestrzeganie tych zasad. profil torrentcity.pl