Kredo Zabójcy-Assassin's Creed 3D (2016)[BR 1080p x264 AC3/DTS][Lektor i napisy PL/Eng/Multi Sub][Eng] torrent

 
Kredo Zabójcy-Assassin's Creed 3D (2016)[BR 1080p x264 AC3/DTS][Lektor i napisy PL/Eng/Multi Sub][Eng] torrent


Pozycję wystawił:
Ishimura
Dodano:12.07.2017
Kategoria:3D
Rozmiar:12.40 GB
Seedów:4
Peerów:7
Pobrań:43
pobierz torrent

Kredo Zabójcy-Assassin's Creed 3D (2016)[BR 1080p x264
AC3/DTS][Lektor i napisy PL/Eng/Multi Sub][Eng] torrent


http://i.imgur.com/uteFU49.jpg
http://i.imgur.com/HigtRTE.jpg

http://www.imdb.com/title/tt2094766/
http://www.filmweb.pl/film/Assassin%27s+Creed-2016-659803

Film w wersji 3D Half Over/Under.
Audio DTS 7.1ch i AC3 multi language w osobnym pliku.
Plik zawiera Sample.
Do wyboru: Lektor amatorski, lub napisy.

reżyseria: Justin Kurzel
scenariusz: Michael Lesslie,Bill Collage,Adam Cooper
gatunek: Przygodowy,Fantazy
produkcja: Francja,USA,Wielka Brytania
premiera: 14-12-2016
muzyka: Jed Kurzel
zdjęcia: Adam Arkapaw
czas: 1h 54mn

opis:

When Callum Lynch explores the memories of his ancestor Aguilar and gains the skills of a Master
Assassin, he discovers he is a descendant of the secret Assassins society.

Dzięki przełomowej technologii Callum Lynch doświadcza przygód swojego przodka, asasyna Aguilara,
żyjącego w XV-wiecznej Hiszpanii. Wkrótce podejmuje walkę z potężnymi templariuszami.

http://i.imgur.com/p5yLc9t.jpg
http://i.imgur.com/aEPEeZt.jpg
http://i.imgur.com/1P8PZTg.jpg
http://i.imgur.com/qMtcUuS.jpg

obsada:

Michael Fassbender, Marion Cotillard, Jeremy Irons

dane techniczne:

Assassin's Creed 3D (2016)-alE13.mkv
Format : Matroska
Format version : Version 4 / Version 2
File size : 6.55 GiB
Duration : 1 h 55 min
Overall bit rate : 8 124 kb/s
Movie name : Assassin's Creed 3D (2016)-alE13
Encoded date : UTC 2017-03-19 14:19:34
Writing application : mkvmerge v8.1.0 ('Psychedelic Postcard') 64bit
Writing library : libebml v1.3.1 + libmatroska v1.4.2
Cover : Yes
Attachments : cover.png

Video
ID : 1
Format : AVC
Format/Info : Advanced Video Codec
Format profile : High@L5.1
Format settings, CABAC : Yes
Format settings, ReFrames : 2 frames
Codec ID : V_MPEG4/ISO/AVC
Duration : 1 h 55 min
Bit rate : 7 454 kb/s
Width : 1 920 pixels
Height : 1 080 pixels
Display aspect ratio : 16:9
Frame rate mode : Constant
Frame rate : 23.976 (24000/1001) FPS
Color space : YUV
Chroma subsampling : 4:2:0
Bit depth : 8 bits
Scan type : Progressive
Bits/(Pixel*Frame) : 0.150
Stream size : 6.01 GiB (92%)
Title : Assassin's Creed 3D (2016)-alE13
Writing library : x264 core
Default : Yes
Forced : No
Color range : Limited
Color primaries : BT.709
Transfer characteristics : BT.709
Matrix coefficients : BT.709

Audio #1
ID : 2
Format : AC-3
Format/Info : Audio Coding 3
Mode extension : CM (complete main)
Format settings, Endianness : Big
Codec ID : A_AC3
Duration : 1 h 55 min
Bit rate mode : Constant
Bit rate : 448 kb/s
Channel(s) : 6 channels
Channel positions : Front: L C R, Side: L R, LFE
Sampling rate : 48.0 kHz
Frame rate : 31.250 FPS (1536 spf)
Compression mode : Lossy
Stream size : 370 MiB (6%)
Title : Assassin's Creed 3D (2016)-alE13
Language : English
Default : No
Forced : No

Audio #2
ID : 3
Format : AC-3
Format/Info : Audio Coding 3
Mode extension : CM (complete main)
Format settings, Endianness : Big
Codec ID : A_AC3
Duration : 1 h 54 min
Bit rate mode : Constant
Bit rate : 192 kb/s
Channel(s) : 2 channels
Channel positions : Front: L R
Sampling rate : 48.0 kHz
Frame rate : 31.250 FPS (1536 spf)
Compression mode : Lossy
Delay relative to video : 1 s 860 ms
Stream size : 158 MiB (2%)
Title : Assassin's Creed 3D (2016)-alE13
Language : Polish
Default : Yes
Forced : No

Text #1
ID : 4
Format : VobSub
Muxing mode : zlib
Codec ID : S_VOBSUB
Codec ID/Info : Picture based subtitle format used on DVDs
Duration : 1 h 38 min
Bit rate : 4 345 b/s
Count of elements : 564
Stream size : 3.06 MiB (0%)
Title : Assassin's Creed 3D (2016)-alE13
Language : Polish
Default : Yes
Forced : No

Text #2
ID : 5
Format : VobSub
Muxing mode : zlib
Codec ID : S_VOBSUB
Codec ID/Info : Picture based subtitle format used on DVDs
Duration : 1 h 42 min
Bit rate : 2 819 b/s
Count of elements : 884
Stream size : 2.06 MiB (0%)
Title : Assassin's Creed 3D (2016)-alE13
Language : English
Default : No
Forced : No

Text #3
ID : 6
Format : VobSub
Muxing mode : zlib
Codec ID : S_VOBSUB
Codec ID/Info : Picture based subtitle format used on DVDs
Duration : 1 h 53 min
Bit rate : 1 785 b/s
Count of elements : 568
Stream size : 1.46 MiB (0%)
Title : Assassin's Creed 3D (2016)-alE13
Language : Spanish
Default : No
Forced : No

Text #4
ID : 7
Format : VobSub
Muxing mode : zlib
Codec ID : S_VOBSUB
Codec ID/Info : Picture based subtitle format used on DVDs
Duration : 1 h 54 min
Bit rate : 2 279 b/s
Count of elements : 692
Stream size : 1.86 MiB (0%)
Title : Assassin's Creed 3D (2016)-alE13
Language : French
Default : No
Forced : No

Text #5
ID : 8
Format : VobSub
Muxing mode : zlib
Codec ID : S_VOBSUB
Codec ID/Info : Picture based subtitle format used on DVDs
Duration : 1 h 54 min
Bit rate : 2 025 b/s
Count of elements : 596
Stream size : 1.65 MiB (0%)
Title : Assassin's Creed 3D (2016)-alE13
Language : Danish
Default : No
Forced : No

Text #6
ID : 9
Format : VobSub
Muxing mode : zlib
Codec ID : S_VOBSUB
Codec ID/Info : Picture based subtitle format used on DVDs
Duration : 1 h 53 min
Bit rate : 1 942 b/s
Count of elements : 662
Stream size : 1.58 MiB (0%)
Title : Assassin's Creed 3D (2016)-alE13
Language : Finnish
Default : No
Forced : No

Text #7
ID : 10
Format : VobSub
Muxing mode : zlib
Codec ID : S_VOBSUB
Codec ID/Info : Picture based subtitle format used on DVDs
Duration : 1 h 54 min
Bit rate : 2 033 b/s
Count of elements : 667
Stream size : 1.66 MiB (0%)
Title : Assassin's Creed 3D (2016)-alE13
Language : Norwegian
Default : No
Forced : No

Text #8
ID : 11
Format : VobSub
Muxing mode : zlib
Codec ID : S_VOBSUB
Codec ID/Info : Picture based subtitle format used on DVDs
Duration : 1 h 54 min
Bit rate : 2 098 b/s
Count of elements : 675
Stream size : 1.71 MiB (0%)
Title : Assassin's Creed 3D (2016)-alE13
Language : Portuguese
Default : No
Forced : No

Text #9
ID : 12
Format : VobSub
Muxing mode : zlib
Codec ID : S_VOBSUB
Codec ID/Info : Picture based subtitle format used on DVDs
Duration : 1 h 54 min
Bit rate : 2 547 b/s
Count of elements : 688
Stream size : 2.08 MiB (0%)
Title : Assassin's Creed 3D (2016)-alE13
Language : Russian
Default : No
Forced : No

Text #10
ID : 13
Format : VobSub
Muxing mode : zlib
Codec ID : S_VOBSUB
Codec ID/Info : Picture based subtitle format used on DVDs
Duration : 1 h 54 min
Bit rate : 2 066 b/s
Count of elements : 666
Stream size : 1.69 MiB (0%)
Title : Assassin's Creed 3D (2016)-alE13
Language : Swedish
Default : No
Forced : No

Text #11
ID : 14
Format : VobSub
Muxing mode : zlib
Codec ID : S_VOBSUB
Codec ID/Info : Picture based subtitle format used on DVDs
Duration : 1 h 53 min
Bit rate : 2 084 b/s
Count of elements : 664
Stream size : 1.70 MiB (0%)
Title : Assassin's Creed 3D (2016)-alE13
Language : Estonian
Default : No
Forced : No

Text #12
ID : 15
Format : VobSub
Muxing mode : zlib
Codec ID : S_VOBSUB
Codec ID/Info : Picture based subtitle format used on DVDs
Duration : 1 h 53 min
Bit rate : 2 096 b/s
Count of elements : 662
Stream size : 1.71 MiB (0%)
Title : Assassin's Creed 3D (2016)-alE13
Language : Latvian
Default : No
Forced : No

Text #13
ID : 16
Format : VobSub
Muxing mode : zlib
Codec ID : S_VOBSUB
Codec ID/Info : Picture based subtitle format used on DVDs
Duration : 1 h 54 min
Bit rate : 2 094 b/s
Count of elements : 668
Stream size : 1.71 MiB (0%)
Title : Assassin's Creed 3D (2016)-alE13
Language : Lithuanian
Default : No
Forced : No

Text #14
ID : 17
Format : VobSub
Muxing mode : zlib
Codec ID : S_VOBSUB
Codec ID/Info : Picture based subtitle format used on DVDs
Duration : 1 h 53 min
Bit rate : 2 231 b/s
Count of elements : 676
Stream size : 1.82 MiB (0%)
Title : Assassin's Creed 3D (2016)-alE13
Language : Ukrainian
Default : No
Forced : No

Text #15
ID : 18
Format : VobSub
Muxing mode : zlib
Codec ID : S_VOBSUB
Codec ID/Info : Picture based subtitle format used on DVDs
Duration : 1 h 18 min
Bit rate : 260 b/s
Count of elements : 99
Stream size : 150 KiB (0%)
Title : Assassin's Creed 3D (2016)-alE13
Language : English
Default : No
Forced : No

Menu
00:00:00.000 : en:(01)00:00:00:000
00:06:04.155 : en:(02)00:06:04:155
00:09:32.697 : en:(03)00:09:32:697
00:12:47.516 : en:(04)00:12:47:516
00:16:47.715 : en:(05)00:16:47:715
00:21:07.432 : en:(06)00:21:07:432
00:26:56.448 : en:(07)00:26:56:448
00:31:55.079 : en:(08)00:31:55:079
00:38:06.284 : en:(09)00:38:06:284
00:41:43.167 : en:(10)00:41:43:167
00:46:33.040 : en:(11)00:46:33:040
00:50:10.257 : en:(12)00:50:10:257
00:53:04.389 : en:(13)00:53:04:389
00:56:17.624 : en:(14)00:56:17:624
00:59:26.479 : en:(15)00:59:26:479
01:02:32.582 : en:(16)01:02:32:582
01:06:37.034 : en:(17)01:06:37:034
01:13:08.759 : en:(18)01:13:08:759
01:18:45.887 : en:(19)01:18:45:887
01:23:01.101 : en:(20)01:23:01:101
01:30:17.995 : en:(21)01:30:17:995
01:34:18.194 : en:(22)01:34:18:194
01:37:45.192 : en:(23)01:37:45:192
01:40:51.003 : en:(24)01:40:51:003
01:55:30.715 : en:(25)01:55:30:715
 


Aby dodać komentarz należy się zalogować

Logowanie logowanie

Twoja ocena
Shoutbox (zawartość shoutboxa widoczna dla zalogowanych użytkowników)


Żaden z plików nie znajduje się na serwerze. Torrenty są własnością użytkowników. Administrator serwisu nie może ponieść konsekwencji za to co użytkownicy wstawiają, lub za to co czynią na stronie. Nie możesz używać tego serwisu do rozpowszechniania lub ściągania materiałów do których nie masz odpowiednich praw lub licencji. Użytkownicy odpowiedzialni są za przestrzeganie tych zasad. profil torrentcity.pl