Porady na zdrady (2017) 1080p Bluray x264 POLISH 970Mb EngSubs [LoveHD] torrent

 
Porady na zdrady (2017) 1080p Bluray x264 POLISH 970Mb EngSubs [LoveHD] torrent


Pozycję wystawił:
Ishimura
Dodano:10.07.2017
Kategoria:GSM
Rozmiar:971.31 MB
Seedów:9
Peerów:0
Pobrań:11

Porady na zdrady (2017) 1080p Bluray x264 POLISH 970Mb EngSubs
[LoveHD] torrent


[center]


Porady na zdrady (2017) 1080p Bluray x264 POLISH 970Mb EngSubs [LoveHD]

http://i96.fastpic.ru/big/2017/0709/10/b89032eaf87cf293138f25b2a8eff310.jpg

Plot:-
Two jilted women create a company to catch cheating men.
Director: Ryszard Zatorski
Writer: Ryszard Zatorski
Stars: Magdalena Lamparska, Mikolaj Roznerski, Anna Dereszowska
IMDB:-http://www.imdb.com/title/tt6575062/

Screenshots:- Click to Enlarge:-

http://imgchili.net/show/107025/107025926_proday_(1).png http://imgchili.net/show/107025/107025929_proday_(2).png http://imgchili.net/show/107025/107025931_proday_(3).png http://imgchili.net/show/107025/107025932_proday_(4).png http://imgchili.net/show/107025/107025935_proday_(5).png http://imgchili.net/show/107025/107025936_proday_(6).png




Format                                   : Matroska
Format version                           : Version 4 / Version 2
File size                                : 971 MiB
Duration                                 : 1 h 36 min
Overall bit rate                         : 1 411 kb/s

Video
ID                                       : 1
Format                                   : AVC
Format/Info                              : Advanced Video Codec
Format profile                           : High@L4
Format settings, CABAC                   : Yes
Format settings, RefFrames               : 3 frames
Codec ID                                 : V_MPEG4/ISO/AVC
Duration                                 : 1 h 36 min
Bit rate                                 : 1 280 kb/s
Width                                    : 1 920 pixels
Height                                   : 808 pixels
Display aspect ratio                     : 2.40:1
Frame rate mode                          : Constant
Frame rate                               : 25.000 FPS
Color space                              : YUV
Chroma subsampling                       : 4:2:0
Bit depth                                : 8 bits
Scan type                                : Progressive
Bits/(Pixel*Frame)                       : 0.033
Stream size                              : 881 MiB (91%)
Title                                    : LoveHD
Writing library                          : x264 core 148 r2643 5c65704
Language                                 : Polish
Default                                  : Yes
Forced                                   : No

Audio
ID                                       : 2
Format                                   : AAC
Format/Info                              : Advanced Audio Codec
Format profile                           : LC
Codec ID                                 : A_AAC
Duration                                 : 1 h 36 min
Bit rate                                 : 129 kb/s
Channel(s)                               : 2 channels
Channel positions                        : Front: L R
Sampling rate                            : 48.0 kHz
Frame rate                               : 46.875 FPS (1024 SPF)
Compression mode                         : Lossy
Delay relative to video                  : -21 ms
Stream size                              : 89.0 MiB (9%)
Title                                    : LoveHD
Language                                 : Polish
Default                                  : Yes
Forced                                   : No

Text
ID                                       : 3
Format                                   : UTF-8
Codec ID                                 : S_TEXT/UTF8
Codec ID/Info                            : UTF-8 Plain Text
Duration                                 : 1 h 32 min
Bit rate                                 : 49 b/s
Count of elements                        : 1154
Stream size                              : 33.7 KiB (0%)
Title                                    : LoveHD
Language                                 : English
Default                                  : Yes
Forced                                   : No



Source - ROVERS - Thanks

If you like my post, don't forget to say Thanks.

[/center]
 


Aby dodać komentarz należy się zalogować

Logowanie logowanie

Twoja ocena
Shoutbox (zawartość shoutboxa widoczna dla zalogowanych użytkowników)


Żaden z plików nie znajduje się na serwerze. Torrenty są własnością użytkowników. Administrator serwisu nie może ponieść konsekwencji za to co użytkownicy wstawiają, lub za to co czynią na stronie. Nie możesz używać tego serwisu do rozpowszechniania lub ściągania materiałów do których nie masz odpowiednich praw lub licencji. Użytkownicy odpowiedzialni są za przestrzeganie tych zasad. profil torrentcity.pl