Fru! Yellowbird *(2014)*[WEB DL XviD KiT][Dubbing PL] avi torrent

 
Fru!   Yellowbird *(2014)*[WEB DL XviD KiT][Dubbing PL] avi torrent


Pozycję wystawił:
Ishimura
Dodano:27.06.2017
Kategoria:dla Dzieci
Rozmiar:700.25 MB
Seedów:6
Peerów:3
Pobrań:0
pobierz torrent

Fru! Yellowbird *(2014)*[WEB DL XviD KiT][Dubbing PL] avi torrent


...( Info )...

gatunek: Animacja , Komedia , Przygodowy
produkcja: Belgia , Francja
premiera: 6 marca 2015 (Polska) 11 października 2014 (świat)
reżyseria: Christian De Vita
scenariusz: Antoine Barraud

http://www.filmweb.pl/film/Fru-2014-709701

http://www.imdb.com/title/tt3526408/?ref_=fn_al_tt_1

https://fdb.pl/film/575772-fru

...( Opis )...

Ptaszek, który nigdy wcześniej nie wychylił dzioba poza rodzinne gniazdo, zostaje przez pomyłkę przewodnikiem stada i ma poprowadzić grupę skrzydlaków do ciepłych krajów. Problem w tym, że nieborak nie ma zielonego pojęcia, gdzie leży Afryka. Jednak za sprawą nowych pierzastych przyjaciół i sympatycznej biedronki, która ma trochę nierówno pod kropkami, mały bohater pokaże wszystkim, gdzie ptaki zimują!

...( Obsada )...

Paweł Domagała...Żółty ptaszek (polski dubbing)
Anna Cieślak...Ela (polski dubbing)
Elżbieta Jeżewska...Jadźka (polski dubbing)
Katarzyna Kwiatkowska...Biedronka (polski dubbing)
Cezary Morawski...Dariusz (polski dubbing)
Wojciech Machnicki...Sowa (polski dubbing)
Paweł Szczesny...Czesiu (polski dubbing)
Jarosław Boberek...Karol (polski dubbing)

...( Dane Techniczne )...

Format/Info : Audio Video Interleave
File size : 700 MiB
Duration : 1h 29mn
Overall bit rate : 1 088 Kbps
Writing application : VirtualDubMod 1.5.10.2 (build 2540/release)
Writing library : VirtualDubMod build 2540/release

Video
ID : 0
Format : MPEG-4 Visual
Format profile : Advanced Simple@L5
Format settings, BVOP : 2
Format settings, QPel : No
Format settings, GMC : No warppoints
Format settings, Matrix : Default (H.263)
Muxing mode : Packed bitstream
Codec ID : XVID
Codec ID/Hint : XviD
Duration : 1h 29mn
Bit rate : 909 Kbps
Width : 640 pixels
Height : 352 pixels
Display aspect ratio : 16:9
Frame rate : 24.000 fps
Color space : YUV
Chroma subsampling : 4:2:0
Bit depth : 8 bits
Scan type : Progressive
Compression mode : Lossy
Bits/(Pixel*Frame) : 0.168
Stream size : 584 MiB (83%)
Writing library : XviD 65

Audio
ID : 1
Format : MPEG Audio
Format version : Version 1
Format profile : Layer 3
Mode : Joint stereo
Mode extension : MS Stereo
Codec ID : 55
Codec ID/Hint : MP3
Duration : 1h 29mn
Bit rate mode : Constant
Bit rate : 128 Kbps
Channel(s) : 2 channels
Sampling rate : 48.0 KHz
Compression mode : Lossy
Stream size : 82.3 MiB (12%)
Alignment : Aligned on interleaves

PS/ POBRALES -----> SEEDUJ /THX/
 


Aby dodać komentarz należy się zalogować

Logowanie logowanie

Twoja ocena
Podobne torrenty
Fru! - Yellowbird - Gus, petit oiseau, grand voyage *2014* [MD WEB-DL XViD-J25] [Dubbing PL - Kino]    Fru! - Yellowbird - Gus, petit oiseau, grand voyage *2014* [MD] [BRRip] [XviD-B89] [Dubbing PL KINO]    Fisz & Envee - Fru! [2005][mp3@128]    Fru! - Yellowbird - Gus, petit oiseau, grand voyage *2014* [BDRip] [XviD-KiT] [Dubbing PL]

Fru! - Yellowbird - Gus, petit oiseau, grand voyage *2014* [MD.WEB-DL.XViD-J25] [Dubbing PL - Kino]

Fru! - Yellowbird - Gus, petit oiseau, grand voyage *2014* [MD] [BRRip] [XviD-B89] [Dubbing PL KINO]

Fisz & Envee - Fru! [2005][mp3@128]

Fru! - Yellowbird - Gus, petit oiseau, grand voyage *2014* [BDRip] [XviD-KiT] [Dubbing PL]




Shoutbox (zawartość shoutboxa widoczna dla zalogowanych użytkowników)


Żaden z plików nie znajduje się na serwerze. Torrenty są własnością użytkowników. Administrator serwisu nie może ponieść konsekwencji za to co użytkownicy wstawiają, lub za to co czynią na stronie. Nie możesz używać tego serwisu do rozpowszechniania lub ściągania materiałów do których nie masz odpowiednich praw lub licencji. Użytkownicy odpowiedzialni są za przestrzeganie tych zasad. profil torrentcity.pl