Kopciuszek Cinderella *2015* [480P BRRiP XviD AC3] [Dubbing PL] torrent

 
Kopciuszek   Cinderella *2015* [480P BRRiP XviD AC3] [Dubbing PL] torrent


Pozycję wystawił:
Ishimura
Dodano:27.06.2017
Kategoria:dla Dzieci
Rozmiar:1.45 GB
Seedów:9
Peerów:4
Pobrań:0
pobierz torrent

Kopciuszek Cinderella *2015* [480P BRRiP XviD AC3] [Dubbing PL] torrent


...( Info )...

gatunek: Familijny/Fantasy/Romans
produkcja: USA
reżyseria: Kenneth Branagh
scenariusz: Chris Weitz
premiera: 13 marca 2015 (Polska) 13 lutego 2015 (świat)

http://www.imdb.com/title/tt1661199/?ref_=fn_al_tt_1

http://www.filmweb.pl/film/Kopciuszek-2015-589666

...( Opis )...

"Kopciuszek" to adresowany do całej rodziny film fabularny inspirowany klasyczną baśnią o tym samym tytule. W najnowszej produkcji Disneya, w reżyserii nominowanego do Oscara Kennetha Branagha ("Thor", "Hamlet"), zobaczymy jedne z najbardziej intrygujących aktorek współczesnego kina: Cate Blanchett w roli złej macochy i Helenę Bonham Carter jako dobrą wróżkę. W filmie poznajemy historię Elli, której życie diametralnie zmienia się po niespodziewanej śmierci ojca. Wystawiona na łaskę i niełaskę bezwzględnej macochy i jej dwóch córek, dziewczyna staje się służącą, złośliwie nazywaną Kopciuszkiem…

...( Obsada )...

★ Lily James............... - Kopciuszek
★ Cate Blanchett........... - Macocha
★ Richard Madden........... - Książę
★ Helena Bonham Carter..... - Wróżka chrzestna
★ Nonso Anozie............. - Kapitan
★ Stellan Skarsgård........ - Wielki Książę
★ Sophie McShera........... - Gryzelda
★ Holliday Grainger........ - Anastazja

...( Dane Techniczne )...

Format : AVI
Format/Info : Audio Video Interleave
File size : 1.45 GiB
Duration : 1h 45mn
Overall bit rate : 1 972 Kbps

Video
ID : 0
Format : MPEG-4 Visual
Format profile : Advanced Simple@L5
Format settings, BVOP : 2
Format settings, QPel : No
Format settings, GMC : No warppoints
Format settings, Matrix : Default (H.263)
Muxing mode : Packed bitstream
Codec ID : XVID
Codec ID/Hint : XviD
Duration : 1h 45mn
Bit rate : 1 772 Kbps
Width : 720 pixels
Height : 304 pixels
Display aspect ratio : 2.35:1
Frame rate : 23.976 fps
Color space : YUV
Chroma subsampling : 4:2:0
Bit depth : 8 bits
Scan type : Progressive
Compression mode : Lossy
Bits/(Pixel*Frame) : 0.338
Stream size : 1.30 GiB (90%)
Writing library : XviD 1.2.1 (UTC 2008-12-04)

Audio
ID : 1
Format : AC-3
Format/Info : Audio Coding 3
Mode extension : CM (complete main)
Format settings, Endianness : Big
Codec ID : 2000
Duration : 1h 45mn
Bit rate mode : Constant
Bit rate : 192 Kbps
Channel(s) : 2 channels
Channel positions : Front: L R
Sampling rate : 48.0 KHz
Compression mode : Lossy
Stream size : 145 MiB (10%)
Alignment : Aligned on interleaves
Interleave, duration : 64 ms (1.53 video frames)
Interleave, preload duratio : 192 ms
Title : Kopciuszek-Cindarella.2015.PLDUB.720p.Bluray.x264.AC3-K12 - [0] Polish_new

POBRALES --------. SEEDUJ /THX/
 


Aby dodać komentarz należy się zalogować

Logowanie logowanie

Twoja ocena
Podobne torrenty
Kopciuszek Inna historia - Cendrillon au Far West *2012* [DVDRip] [XviD-LaNK] [Dubbing PL] [AgusiQ] ♥    Kopciuszek w rytmie miłości / Cinderella Story Once Upon a Song *2011* [DVDRip XviD-PSiG][ LEKTOR PL][MIX][TC][Kotlet13City]    Kopciuszek 3: Co by było gdyby - (2007) [DVDRip][XviD][Dub PL]    Kopciuszek - Cinderella (1950) [720p BLURAY x264][DUBBING PL][TB]

Kopciuszek. Inna historia - Cendrillon au Far West *2012* [DVDRip] [XviD-LaNK] [Dubbing PL] [AgusiQ] ♥

Kopciuszek w rytmie miłości / Cinderella Story Once Upon a Song *2011* [DVDRip.XviD-PSiG][ LEKTOR PL][MIX][TC][Kotlet13City]

Kopciuszek 3: Co by było gdyby -  (2007) [DVDRip][XviD][Dub PL]

Kopciuszek - Cinderella (1950) [720p.BLURAY.x264][DUBBING PL][TB]




Shoutbox (zawartość shoutboxa widoczna dla zalogowanych użytkowników)


Żaden z plików nie znajduje się na serwerze. Torrenty są własnością użytkowników. Administrator serwisu nie może ponieść konsekwencji za to co użytkownicy wstawiają, lub za to co czynią na stronie. Nie możesz używać tego serwisu do rozpowszechniania lub ściągania materiałów do których nie masz odpowiednich praw lub licencji. Użytkownicy odpowiedzialni są za przestrzeganie tych zasad. profil torrentcity.pl