Księga dżungli 2 The Jungle Book 2 *(2003)* [BDRip] [XviD] [AC3 ELiTE] [Dubbing PL] torrent

 
Księga dżungli 2   The Jungle Book 2 *(2003)* [BDRip] [XviD] [AC3 ELiTE] [Dubbing PL] torrent


Pozycję wystawił:
Ishimura
Dodano:27.06.2017
Kategoria:dla Dzieci
Rozmiar:1.37 GB
Seedów:0
Peerów:0
Pobrań:0
pobierz torrent

Księga dżungli 2 The Jungle Book 2 *(2003)* [BDRip] [XviD] [AC3
ELiTE] [Dubbing PL] torrent


...( Info )...

reżyseria: Steve Trenbirth
scenariusz: Roger S.H. SchulmanTom Rogers Evan Spiliotopoulos David Reynolds Carter Crocker Karl Geurs
gatunek: Animacja Familijny Musical Przygodowy
produkcja: Australia USA
premiera: 21 marca 2003 (Polska) 5 lutego 2003 (świat)


http://www.filmweb.pl/2.Ksiega.Dzungli

http://www.imdb.com/title/tt0283426/?ref_=nv_sr_4

https://fdb.pl/film/6451-ksiega-dzungli-2

...( Opis )...

Mowgli, chłopiec, którego wychowywały dzikie zwierzęta w dżungli, mieszka dziś w małej wiosce, wśród ludzi. Ma młodszego brata przyrodniego Ranjana, a jego najlepszą przyjaciółką jest Shanti, dziewczynka, dla której niegdyś opuścił dżunglę. Mowgli czuje się rozdarty między dwoma światami..

...( Obsada )...

Jan Prochyra ... Baloo (polski dubbing)
Marek Molak ... Mowgli (polski dubbing)
Zuzanna Galia ... Shanti (polski dubbing)
Jan Machalski ... Ranjan (polski dubbing)
Jerzy Zelnik ... Bagheera (polski dubbing)
Mariusz Leszczyński ... Shere Khan (polski dubbing)
Mariusz Benoit ... Ojciec Ranjan (polski dubbing)
Jacek Jarosz ... Kaaa (polski dubbing)

...( Dane Techniczne )...

Format : AVI
Format/Info : Audio Video Interleave
File size : 1.36 GiB
Duration : 1h 12mn
Overall bit rate : 2 704 Kbps
Movie name : The Jungle Book 2 (2003)
Director : Ripped by ELiTE
Writing application : VirtualDubMod 1.5.10.2 (build 2540/release)
Writing library : VirtualDubMod build 2540/release
Copyright : HQSource.org

Video
ID : 0
Format : MPEG-4 Visual
Format profile : Advanced Simple@L5
Format settings, BVOP : 1
Format settings, QPel : No
Format settings, GMC : No warppoints
Format settings, Matrix : Custom
Codec ID : XVID
Codec ID/Hint : XviD
Duration : 1h 12mn
Bit rate : 2 311 Kbps
Width : 720 pixels
Height : 432 pixels
Display aspect ratio : 5:3
Frame rate : 23.976 fps
Color space : YUV
Chroma subsampling : 4:2:0
Bit depth : 8 bits
Scan type : Progressive
Compression mode : Lossy
Bits/(Pixel*Frame) : 0.310
Stream size : 1.17 GiB (85%)
Writing library : XviD 1.2.1 (UTC 2008-12-04)

Audio
ID : 1
Format : AC-3
Format/Info : Audio Coding 3
Mode extension : CM (complete main)
Format settings, Endianness : Big
Codec ID : 2000
Duration : 1h 12mn
Bit rate mode : Constant
Bit rate : 384 Kbps
Channel(s) : 6 channels
Channel positions : Front: L C R, Side: L R, LFE
Sampling rate : 48.0 KHz
Compression mode : Lossy
Stream size : 198 MiB (14%)
Alignment : Split accross interleaves
Interleave, duration : 42 ms (1.00 video frame)
Interleave, preload duratio : 500 ms

PS/ POBRALES -------> SEEDUJ /THX/
 


Aby dodać komentarz należy się zalogować

Logowanie logowanie

Twoja ocena
Podobne torrenty
Skarb Narodów 2: Księga Tajemnic - National Treasure: The Book of Secrets *2007* [DVDRip] [RMVB] [Lektor PL] [RMVBHunters] + Sample    "Anastazja" - Władimir Megre - księga V [pdf][pl]    Merlin i księga bestii - Merlin and the Book of Beasts *2009* [DVBRip] [XviD] [Lektor PL][Mateusz215]    Księga Ocalenia - The Book Of Eli *2010* [DVDRip] [XviD] [AC3] [Lektor PL] [TC] [irup]

Skarb Narodów 2: Księga Tajemnic - National Treasure: The Book of Secrets *2007* [DVDRip] [RMVB] [Lektor PL] [RMVBHunters] + Sample

\

Merlin i księga bestii - Merlin and the Book of Beasts *2009* [DVBRip] [XviD] [Lektor PL][Mateusz215]

Księga Ocalenia - The Book Of Eli *2010* [DVDRip] [XviD] [AC3] [Lektor PL] [TC] [irup]




Shoutbox (zawartość shoutboxa widoczna dla zalogowanych użytkowników)


Żaden z plików nie znajduje się na serwerze. Torrenty są własnością użytkowników. Administrator serwisu nie może ponieść konsekwencji za to co użytkownicy wstawiają, lub za to co czynią na stronie. Nie możesz używać tego serwisu do rozpowszechniania lub ściągania materiałów do których nie masz odpowiednich praw lub licencji. Użytkownicy odpowiedzialni są za przestrzeganie tych zasad. profil torrentcity.pl