Księga Dżungli The Jungle Book *(1967)* [BDRip] [XviD] [AC3 ELiTE] [Dubbing PL] torrent

 
Księga Dżungli   The Jungle Book *(1967)* [BDRip] [XviD] [AC3 ELiTE] [Dubbing PL] torrent


Pozycję wystawił:
Ishimura
Dodano:27.06.2017
Kategoria:dla Dzieci
Rozmiar:1.37 GB
Seedów:5
Peerów:3
Pobrań:0
pobierz torrent

Księga Dżungli The Jungle Book *(1967)* [BDRip] [XviD] [AC3
ELiTE] [Dubbing PL] torrent


INFO/


reżyseria: Wolfgang Reitherman
gatunek: Animacja Familijny Komedia Musical
produkcja: USA
premiera: 18 października 1967 (świat)

http://www.filmweb.pl/film/Ksi%C4%99ga+d%C5%BCungli-1967-106375

http://www.imdb.com/title/tt0061852/?ref_=fn_al_tt_2

https://fdb.pl/film/6250-ksiega-dzungli



OPIS/

Mowgli jako dziecko zostaje porzucony w dżungli i przygarnięty przez zwierzęta. Kiedy dorasta rozpoczyna podróż w poszukiwaniu swoich prawdziwych korzeni.


OBSADA/


Robert Terechowicz-Schmidt ... Mowgli (polski dubbing)
Jan Prochyra ... Baloo (polski dubbing)
Jerzy Kamas ... Bagheera (polski dubbing)
Andrzej Arciszewski ... Król Louis (polski dubbing)
Mariusz Leszczyński ... Shere Khan (polski dubbing)

DANE/

Format : AVI
Format/Info : Audio Video Interleave
File size : 1.36 GiB
Duration : 1h 18mn
Overall bit rate : 2 490 Kbps
Movie name : The Jungle Book (1967)
Director : Ripped by ELiTE
Writing application : VirtualDubMod 1.5.10.2 (build 2540/release)
Writing library : VirtualDubMod build 2540/release
Copyright : HQSource.org

Video
ID : 0
Format : MPEG-4 Visual
Format profile : Advanced Simple@L5
Format settings, BVOP : 1
Format settings, QPel : No
Format settings, GMC : No warppoints
Format settings, Matrix : Custom
Codec ID : XVID
Codec ID/Hint : XviD
Duration : 1h 18mn
Bit rate : 2 097 Kbps
Width : 720 pixels
Height : 416 pixels
Display aspect ratio : 1.731
Frame rate : 23.976 fps
Color space : YUV
Chroma subsampling : 4:2:0
Bit depth : 8 bits
Scan type : Progressive
Compression mode : Lossy
Bits/(Pixel*Frame) : 0.292
Stream size : 1.15 GiB (84%)
Writing library : XviD 1.2.1 (UTC 2008-12-04)

Audio
ID : 1
Format : AC-3
Format/Info : Audio Coding 3
Mode extension : CM (complete main)
Format settings, Endianness : Big
Codec ID : 2000
Duration : 1h 18mn
Bit rate mode : Constant
Bit rate : 384 Kbps
Channel(s) : 6 channels
Channel positions : Front: L C R, Side: L R, LFE
Sampling rate : 48.0 KHz
Compression mode : Lossy
Stream size : 215 MiB (15%)
Alignment : Split accross interleaves
Interleave, duration : 42 ms (1.00 video frame)
Interleave, preload duratio : 500 ms

PS/ POBRALES -------. SEEDUJ /THX/
 


Aby dodać komentarz należy się zalogować

Logowanie logowanie

Twoja ocena
Podobne torrenty
Czarna księga - Zwartboek *2006* [DVDRip] [XViD-NN] [Lektor PL]    Księga czarów Arkandiasa - The Secret of Arkandias - Le grimoire d'Arkandias *2014* [BRRip] [XviD-KiT] [Lektor PL]    Księga Ocalenia - The Book of Eli *2010* [PAL] [DVD5] [Napisy i Lektor PL]    D'Amato Brian - Królestwo Słońca Księga I i II [PL] [pdf]

Czarna księga - Zwartboek *2006* [DVDRip] [XViD-NN] [Lektor PL]

Księga czarów Arkandiasa - The Secret of Arkandias - Le grimoire d\'Arkandias *2014* [BRRip] [XviD-KiT] [Lektor PL]

Księga Ocalenia - The Book of Eli *2010* [PAL] [DVD5] [Napisy i Lektor PL]

D\'Amato Brian - Królestwo Słońca Księga I i II [PL] [pdf]




Shoutbox (zawartość shoutboxa widoczna dla zalogowanych użytkowników)


Żaden z plików nie znajduje się na serwerze. Torrenty są własnością użytkowników. Administrator serwisu nie może ponieść konsekwencji za to co użytkownicy wstawiają, lub za to co czynią na stronie. Nie możesz używać tego serwisu do rozpowszechniania lub ściągania materiałów do których nie masz odpowiednich praw lub licencji. Użytkownicy odpowiedzialni są za przestrzeganie tych zasad. profil torrentcity.pl