Księżniczka Łabędzi 3 Skarb czarnoksiężnika *1998* [DVDRip XviD] [Dubbing PL] torrent

 
Księżniczka Łabędzi 3   Skarb czarnoksiężnika *1998* [DVDRip XviD] [Dubbing PL] torrent


Pozycję wystawił:
Ishimura
Dodano:22.06.2017
Kategoria:dla Dzieci
Rozmiar:698.75 MB
Seedów:0
Peerów:0
Pobrań:0
pobierz torrent

Księżniczka Łabędzi 3 Skarb czarnoksiężnika *1998* [DVDRip
XviD] [Dubbing PL] torrent


...( Info )...

Księżniczka łabędzi: Skarb czarnoksiężnika
The Swan Princess: The Mystery of the Enchanted Treasure (1998)
gatunek: Animacja, Familijny, Baśń
produkcja: USA
premiera: 4 sierpnia 1998 (świat)
reżyseria: Richard Rich
scenariusz: Richard Rich, Brian Nissen

http://www.filmweb.pl/film/Ksi%C4%99%C5%BCniczka+%C5%81ab%C4%99dzi%3A+Skarb+Czarnoksi%C4%99%C5%BCnika-1998-107891

https://fdb.pl/film/19159-ksiezniczka-labedzi-skarb-czarnoksieznika

https://fdb.pl/film/19159-ksiezniczka-labedzi-skarb-czarnoksieznika

...( Opis )...

Zła czarownica Zelda stara się wywołać zamęt i uprzykrzyć życie mieszkańcom okolic Jeziora Łabędziego, kradnąc Zakazane Dzieło - skarb o magicznych właściwościach, zapewniający nieograniczona moc swemu posiadaczowi. Aby zrealizować swój nikczemny plan, Zelda porywa Odettę, Księżniczkę Łabędzi.

...( Obsada )...

Michelle Nicastro...Odette (głos)
Steve Vinovich...Puffin (głos)
Doug Stone...Speed (głos)
Brian Nissen...Derek (głos)
Sean Wright...Rothbart (głos)
Donald Sage Mackay...Jean-Bob (głos)
Christy Landers...Uberta (głos)
Katja Zoch...Zelda (głos)

...( Dane Techniczne )...

Format : AVI
Format/Info : Audio Video Interleave
File size : 698 MiB
Duration : 1h 9mn
Overall bit rate : 1 401 Kbps
Writing application : VirtualDubMod 1.5.10.2 (build 2540/release)
Writing library : VirtualDubMod build 2540/release

Video
ID : 0
Format : MPEG-4 Visual
Format profile : Advanced Simple@L5
Format settings, BVOP : 2
Format settings, QPel : No
Format settings, GMC : No warppoints
Format settings, Matrix : Default (H.263)
Codec ID : XVID
Codec ID/Hint : XviD
Duration : 1h 9mn
Bit rate : 1 263 Kbps
Width : 720 pixels
Height : 384 pixels
Display aspect ratio : 1.85:1
Frame rate : 25.000 fps
Color space : YUV
Chroma subsampling : 4:2:0
Bit depth : 8 bits
Scan type : Progressive
Compression mode : Lossy
Bits/(Pixel*Frame) : 0.183
Stream size : 630 MiB (90%)
Writing library : XviD 64

Audio
ID : 1
Format : MPEG Audio
Format version : Version 1
Format profile : Layer 3
Mode : Joint stereo
Mode extension : MS Stereo
Codec ID : 55
Codec ID/Hint : MP3
Duration : 1h 9mn
Bit rate mode : Constant
Bit rate : 128 Kbps
Channel(s) : 2 channels
Sampling rate : 48.0 KHz
Compression mode : Lossy
Stream size : 63.8 MiB (9%)
Alignment : Aligned on interleaves
Interleave, duration : 40 ms (1.00 video frame)
Interleave, preload duratio : 504 ms

PS/ ---------> POBRALES --------> SEEDUJ /THX/
 


Aby dodać komentarz należy się zalogować

Logowanie logowanie

Twoja ocena
Podobne torrenty
Księżniczka Marsa / Princess of Mars (2009) [DVDRip XviD] [Lektor PL] [FSC] [1 LiNK]    Biała Księżniczka - The White Princess [S01E04] [WEBRip XviD-666] [Lektor PL]    Księżniczka słońca - La Reine soleil *2007* [DVDRIP XviD] [Dubbing PL] [TC] [irup]    Sara Blaedel - Mam na imiś Księżniczka [Audiobook PL] eds [MP3@128]

Księżniczka Marsa / Princess of Mars (2009) [DVDRip.XviD] [Lektor PL] [FSC] [1 LiNK]

Biała Księżniczka - The White Princess [S01E04] [WEBRip.XviD-666] [Lektor PL]

Księżniczka słońca - La Reine soleil *2007* [DVDRIP.XviD]                    [Dubbing PL] [TC] [irup]

Sara Blaedel - Mam na imiś Księżniczka [Audiobook PL] eds [MP3@128]




Shoutbox (zawartość shoutboxa widoczna dla zalogowanych użytkowników)


Żaden z plików nie znajduje się na serwerze. Torrenty są własnością użytkowników. Administrator serwisu nie może ponieść konsekwencji za to co użytkownicy wstawiają, lub za to co czynią na stronie. Nie możesz używać tego serwisu do rozpowszechniania lub ściągania materiałów do których nie masz odpowiednich praw lub licencji. Użytkownicy odpowiedzialni są za przestrzeganie tych zasad. profil torrentcity.pl