Shpongle: Live at Red Rocks (2014)[BRRip 1080p x264 ][Eng] torrent

 
Shpongle: Live at Red Rocks (2014)[BRRip 1080p x264 ][Eng] torrent


Pozycję wystawił:
Ishimura
Dodano:18.06.2017
Kategoria:Teledyski
Rozmiar:15.44 GB
Seedów:7
Peerów:2
Pobrań:0
pobierz torrent

Shpongle: Live at Red Rocks (2014)[BRRip 1080p x264 ][Eng] torrent


http://i.imgur.com/EYBa3Ea.jpg

Audio DTS i PCM w osobnym pliku.

premiera: 2014
gatunek: koncert, trance, ambient, psybient, psytrance, psydub
produkcja: Wielka Brytania,
wytwórnia: Twisted Records
producent: Steven Vidaic
reżyseria: Jesse R. Borrell
czas: 02:20:25 + 00:04:17 + 00:03:03 + 00:00:29

opis:

Live performance of the legendary team Shpongle, in the Amphitheater of Red Rocks,
Morrison Colorado. May 10, 2014.

Występ na żywo legendarnego zespołu Shpongle, w Red Rocks Amphitheatre w Morrison-Kolorado,
10 maja 2014 r.

http://i.imgur.com/ZofTYYc.jpg
http://i.imgur.com/lS4sx8a.jpg
http://i.imgur.com/F8IkW2a.jpg
http://i.imgur.com/EFdnu5y.jpg

obsada:

Shpongle

tracklist:

01. Intro
02. Museum Of Consciousness
03. Dorset Perception
04. Periscopes Of Consciousness
05. When Shall I Be Free?
06. Aquatic Garden Of Extra-Celestial Delights
07. I Am You
08. Juggling Molecules
09. Ineffable Mysteries
10. The Epiphany Of Mrs Kugla
11. Nothing Is Something Worth Doing
12. How The Jellyfish Jumped Up The Mountain
13. DMT
14. My Head Feels Like A Frisbee
15. Band Introductions
16. Beija Flor
17. Around The World In A Tea Daze
18. Credits

dane techniczne:

Plik: Shpongle - Live at Red Rocks (2014)-alE13_DTS_PCM.mka

Hash: 0C3F8EEBFE2E7CA8
Format: Matroska
Czas: 02:20:25.931
Rozmiar: 6.93 GiB (7439213700)

Audio (0):
Kodek: (PCM) PCM
Format: PCM
Kanały: 2 channels
BitRate: 2 304 kb/s
Tytuł: Shpongle: Live at Red Rocks (2014)-alE13_PCM
Język: English

Audio (1):
Kodek: (DTS-HD) DTS-HD
Format: DTS
Kanały: 6 channels
BitRate: 4 755 kb/s / 1 509 kb/s
Tytuł: Shpongle: Live at Red Rocks (2014)-alE13_DTS-HD Master
Język: English

Shpongle - Live at Red Rocks (2014)-alE13.mkv
Format : Matroska
Format version : Version 4 / Version 2
File size : 8.09 GiB
Duration : 2 h 20 min
Overall bit rate : 8 250 kb/s
Movie name : Shpongle: Live at Red Rocks (2014)-alE13
Encoded date : UTC 2017-06-16 10:43:08
Writing application : mkvmerge v8.1.0 ('Psychedelic Postcard') 64bit
Writing library : libebml v1.3.1 + libmatroska v1.4.2
Cover : Yes
Attachments : cover.jpg

Video
ID : 1
Format : AVC
Format/Info : Advanced Video Codec
Format profile : High@L4.1
Format settings, CABAC : Yes
Format settings, ReFrames : 2 frames
Codec ID : V_MPEG4/ISO/AVC
Duration : 2 h 20 min
Bit rate : 7 607 kb/s
Width : 1 920 pixels
Height : 1 080 pixels
Display aspect ratio : 16:9
Frame rate mode : Constant
Frame rate : 23.976 (24000/1001) FPS
Color space : YUV
Chroma subsampling : 4:2:0
Bit depth : 8 bits
Scan type : Progressive
Bits/(Pixel*Frame) : 0.153
Stream size : 7.46 GiB (92%)
Title : Shpongle: Live at Red Rocks (2014)-alE13
Writing library : x264 core 142
Default : Yes
Forced : No
Color range : Limited
Color primaries : BT.709
Transfer characteristics : BT.709
Matrix coefficients : BT.709

Audio
ID : 2
Format : AC-3
Format/Info : Audio Coding 3
Mode extension : CM (complete main)
Format settings, Endianness : Big
Codec ID : A_AC3
Duration : 2 h 20 min
Bit rate mode : Constant
Bit rate : 640 kb/s
Channel(s) : 6 channels
Channel positions : Front: L C R, Side: L R, LFE
Sampling rate : 48.0 kHz
Frame rate : 31.250 FPS (1536 spf)
Compression mode : Lossy
Stream size : 643 MiB (8%)
Title : Shpongle: Live at Red Rocks (2014)-alE13
Language : English
Default : Yes
Forced : No

Menu
00:00:00.000 : en:(01)00:00:00:000
00:01:13.490 : en:(02)00:01:13:490
00:09:24.564 : en:(03)00:09:24:564
00:17:38.057 : en:(04)00:17:38:057
00:21:56.732 : en:(05)00:21:56:732
00:29:39.778 : en:(06)00:29:39:778
00:39:29.367 : en:(07)00:39:29:367
00:50:59.056 : en:(08)00:50:59:056
01:00:56.653 : en:(09)01:00:56:653
01:10:46.242 : en:(10)01:10:46:242
01:17:30.646 : en:(11)01:17:30:646
01:24:54.506 : en:(12)01:24:54:506
01:34:56.691 : en:(13)01:34:56:691
01:45:20.314 : en:(14)01:45:20:314
01:56:10.964 : en:(15)01:56:10:964
01:58:03.076 : en:(16)01:58:03:076
02:06:25.578 : en:(17)02:06:25:578
02:17:51.263 : en:(18)02:17:51:263
 


Aby dodać komentarz należy się zalogować

Logowanie logowanie

Twoja ocena
Shoutbox (zawartość shoutboxa widoczna dla zalogowanych użytkowników)


Żaden z plików nie znajduje się na serwerze. Torrenty są własnością użytkowników. Administrator serwisu nie może ponieść konsekwencji za to co użytkownicy wstawiają, lub za to co czynią na stronie. Nie możesz używać tego serwisu do rozpowszechniania lub ściągania materiałów do których nie masz odpowiednich praw lub licencji. Użytkownicy odpowiedzialni są za przestrzeganie tych zasad. profil torrentcity.pl