Dire Straits–On the Night, Arenes de Nimes & Rotterdam 1992 (2015)[TVHDRip.x264 ][Eng] torrent

 
Dire Straits–On the Night, Arenes de Nimes & Rotterdam 1992 (2015)[TVHDRip.x264 ][Eng] torrent


Pozycję wystawił:
Ishimura
Dodano:13.06.2017
Kategoria:Teledyski
Rozmiar:6.38 GB
Seedów:1
Peerów:1
Pobrań:4
pobierz torrent

Dire Straits–On the Night, Arenes de Nimes & Rotterdam 1992
(2015)[TVHDRip.x264 ][Eng] torrent


http://i.imgur.com/Anv1oE9.jpg

Plik Zawiera Sample.

produkcja: Germany
data: 2015
reżyseria: tv ORF
producent: Paul Cummins
gatunek: dokument, rock
czas: 01:33:50

opis:

Filmed and recorded at Les Arenes, Nimes, France and Feyenoord Stadium Rotterdam, Netherlands May 1992.

All songs written by Mark Knopfler.

Dokumentalny zapis filmowy koncertu Dire Straits na Les Arenes w Nimes (Francja) i na Feyenoord Stadium
w Rotterdamie (Holandia) w maju 1992 roku.

Wszystkie utwory skomponował Mark Knopfler.

http://i.imgur.com/lxW8xqR.jpg
http://i.imgur.com/b0ykRcn.jpg
http://i.imgur.com/rkHxlJv.jpg
http://i.imgur.com/LTLfCMI.jpg

obsada:

Mark Knopfler – lead guitar, lead vocals
John Illsley – bass guitar, backing vocals
Alan Clark – keyboards
Guy Fletcher – keyboards, backing vocals
Chris White – saxophone, flute, percussion, backing vocals
Paul Franklin – pedal steel guitar
Phil Palmer – guitar, backing vocals
Danny Cummings – percussion, backing vocals
Chris Whitten – drums

tracklist:

1. "Calling Elvis"
2. "Walk of Life"
3. "Heavy Fuel"
4. "Romeo and Juliet"
5. "The Bug"
6. "Private Investigations"
7. "Your Latest Trick"
8. "On Every Street"
9. "You and Your Friend"
10. "Money for Nothing" (Mark Knopfler, Gordon Sumner)
11. "Brothers in Arms"
12. "Solid Rock"
13. "Local Hero – Wild Theme"

dane techniczne:

Dire Straits – On the Night, Arenes de Nimes & Rotterdam 1992 (2015)-alE13 (1).mkv
Format : Matroska
Format version : Version 4 / Version 2
File size : 6.32 GiB
Duration : 1 h 33 min
Overall bit rate mode : Constant
Overall bit rate : 9 644 kb/s
Movie name : Dire Straits – On the Night, Arenes de Nimes & Rotterdam 1992 (2015)-alE13
Encoded date : UTC 2017-03-05 05:12:53
Writing application : mkvmerge v7.9.0 ('Birds') 64bit
Writing library : libebml v1.3.1 + libmatroska v1.4.2
Cover : Yes
Attachments : cover.jpg

Video
ID : 2
Format : AVC
Format/Info : Advanced Video Codec
Format profile : Main@L4.2
Format settings, CABAC : Yes
Format settings, ReFrames : 2 frames
Format settings, GOP : M=1, N=12
Codec ID : V_MPEG4/ISO/AVC
Duration : 1 h 33 min
Bit rate mode : Constant
Bit rate : 9 199 kb/s
Width : 1 920 pixels
Height : 1 080 pixels
Display aspect ratio : 16:9
Frame rate mode : Constant
Frame rate : 60.000 FPS
Color space : YUV
Chroma subsampling : 4:2:0
Bit depth : 8 bits
Scan type : Progressive
Bits/(Pixel*Frame) : 0.074
Stream size : 6.02 GiB (95%)
Title : Dire Straits – On the Night, Arenes de Nimes & Rotterdam 1992 (2015)-alE13
Default : Yes
Forced : No

Audio
ID : 1
Format : AC-3
Format/Info : Audio Coding 3
Mode extension : CM (complete main)
Format settings, Endianness : Big
Codec ID : A_AC3
Duration : 1 h 33 min
Bit rate mode : Constant
Bit rate : 448 kb/s
Channel(s) : 6 channels
Channel positions : Front: L C R, Side: L R, LFE
Sampling rate : 48.0 kHz
Frame rate : 31.250 FPS (1536 spf)
Compression mode : Lossy
Stream size : 301 MiB (5%)
Title : Dire Straits – On the Night, Arenes de Nimes & Rotterdam 1992 (2015)-alE13_AC3
Language : English
Default : Yes
Forced : No
 


Aby dodać komentarz należy się zalogować

Logowanie logowanie

Twoja ocena
Podobne torrenty
VA - DirectX Fresh Best Tracks V7 (2013) [mp3@320kbps]    Assassins Creed - crack i niezbędny directx    Kontakt Bezpośredni / Direct Contact (2009) DVDRip - XviD - lektor PL    Kontakt Bezpośredni / Direct Contact (2009) [DVDRip] [XviD-BiDA] [Lektor PL] [D-E-V-I-L]

VA - DirectX Fresh Best Tracks V7 (2013) [mp3@320kbps]

Assassins Creed  - crack i niezbędny directx

Kontakt Bezpośredni / Direct Contact (2009) DVDRip - XviD - lektor PL

Kontakt Bezpośredni / Direct Contact (2009) [DVDRip] [XviD-BiDA] [Lektor PL] [D-E-V-I-L]




Shoutbox (zawartość shoutboxa widoczna dla zalogowanych użytkowników)


Żaden z plików nie znajduje się na serwerze. Torrenty są własnością użytkowników. Administrator serwisu nie może ponieść konsekwencji za to co użytkownicy wstawiają, lub za to co czynią na stronie. Nie możesz używać tego serwisu do rozpowszechniania lub ściągania materiałów do których nie masz odpowiednich praw lub licencji. Użytkownicy odpowiedzialni są za przestrzeganie tych zasad. profil torrentcity.pl