Księżniczka łabędzi The Swan Princess *1994* [DVDRip XviD] [Dubbing PL] torrent

 
Księżniczka łabędzi   The Swan Princess *1994* [DVDRip XviD] [Dubbing PL] torrent


Pozycję wystawił:
Ishimura
Dodano:09.06.2017
Kategoria:dla Dzieci
Rozmiar:697.75 MB
Seedów:3
Peerów:0
Pobrań:0
pobierz torrent

Księżniczka łabędzi The Swan Princess *1994* [DVDRip XviD]
[Dubbing PL] torrent


...( Info )...

Księżniczka łabędzi
The Swan Princess (1994)
gatunek: Animacja, Familijny, Baśń
produkcja: USA
premiera: 15 marca 1996 (Polska), 18 listopada 1994 (świat)
reżyseria: Richard Rich
scenariusz: Brian Nissen

http://www.filmweb.pl/film/Ksi%C4%99%C5%BCniczka+%C5%82ab%C4%99dzi-1994-6909

http://www.imdb.com/title/tt0111333/?ref_=fn_al_tt_1

https://fdb.pl/film/15160-ksiezniczka-labedzi

...( Opis )...

Księżniczka Łabędzi to muzyczny film animowany oparty na klasycznej baśni o Jeziorze Łabędzim. Akcja tej fantastycznej opowieści rozgrywa się w mitycznych czasach, gdy królowie mieszkali we wspaniałych zamkach, ziemię porastały nieprzebyte knieje. Dwoje zakochanych, książę Derek i księżniczka Odetta, zostają rozdzieleni przez złego Rothbarta. Czarownik porywa księżniczkę i zamienia ją w łabędzia. Chce ją poślubić, żeby zostać władcą królestwa. Dobroduszne, zabawne zwierzątka zamieszkujące Jezioro Łabędzie pomagają Odetcie, lecz aby zrzucić złowrogi czar Derek musi udowodnić swą miłość i stanąć do walki z przebiegłym i potężnym Rothbartem. Księżniczka Łabędzi jest filmem pełnym magii i przygód, muzyki i humoru.

...( Obsada )...


Jack Palance...Lord Rothbart (głos)
Michelle Nicastro...Dorosła Księżniczka Odette (głos)
Mark Harelik...Lord Rogers (głos)
Adam Wylie...Młody Książę Derek (głos)
Howard McGillin...Dorosły Książę Derek (głos)
Sandy Duncan...Królowa Uberta (głos)
Steve Vinovich...Puffin (głos)
James Arrington...Szambelan (głos)

...( Dane Techniczne )...

Format : AVI
Format/Info : Audio Video Interleave
File size : 697 MiB
Duration : 1h 25mn
Overall bit rate : 1 140 Kbps
Writing application : VirtualDubMod 1.5.10.2 (build 2540/release)
Writing library : VirtualDubMod build 2540/release

Video
ID : 0
Format : MPEG-4 Visual
Format profile : Advanced Simple@L5
Format settings, BVOP : 2
Format settings, QPel : No
Format settings, GMC : No warppoints
Format settings, Matrix : Default (H.263)
Codec ID : XVID
Codec ID/Hint : XviD
Duration : 1h 25mn
Bit rate : 1 002 Kbps
Width : 640 pixels
Height : 336 pixels
Display aspect ratio : 1.905
Frame rate : 25.000 fps
Color space : YUV
Chroma subsampling : 4:2:0
Bit depth : 8 bits
Scan type : Progressive
Compression mode : Lossy
Bits/(Pixel*Frame) : 0.186
Stream size : 613 MiB (88%)
Writing library : XviD 64

Audio
ID : 1
Format : MPEG Audio
Format version : Version 1
Format profile : Layer 3
Mode : Joint stereo
Mode extension : MS Stereo
Codec ID : 55
Codec ID/Hint : MP3
Duration : 1h 25mn
Bit rate mode : Constant
Bit rate : 128 Kbps
Channel(s) : 2 channels
Sampling rate : 48.0 KHz
Compression mode : Lossy
Stream size : 78.3 MiB (11%)
Alignment : Aligned on interleaves
Interleave, duration : 40 ms (1.00 video frame)
Interleave, preload duratio : 504 ms
Writing library : LAME3.98.2ŞŞŞŞŞŞŞŞŞŞ

PS/ POBRALES --------> SEEDUJ /THX/
 


Aby dodać komentarz należy się zalogować

Logowanie logowanie

Twoja ocena
Podobne torrenty
Księżniczka na ziarnku grochu - The Princess And The Pea *2002* [DVDRip XviD-szadek76] [Dub    Księżniczka słońca - La Reine soleil *2007* [DVDRip] RMVB] [Dub PL]    Księżniczka i Żaba - The Princess and the Frog (2009) [720p BluRay x264 AC3-LTN] [Dubbing PL]    Księżniczka Łabędzi i niezwykła Gwiazdka - The Swan Princess: Royally Undercover *2017* [WEB-DL] [XviD-KiT] [Lektor PL]

Księżniczka na ziarnku grochu - The Princess And The Pea *2002* [DVDRip.XviD-szadek76] [Dub

Księżniczka słońca - La Reine soleil *2007* [DVDRip] RMVB] [Dub PL]

Księżniczka i Żaba - The Princess and the Frog (2009) [720p.BluRay..x264.AC3-LTN] [Dubbing PL]

Księżniczka Łabędzi i niezwykła Gwiazdka - The Swan Princess: Royally Undercover *2017* [WEB-DL] [XviD-KiT] [Lektor PL]




Shoutbox (zawartość shoutboxa widoczna dla zalogowanych użytkowników)


Żaden z plików nie znajduje się na serwerze. Torrenty są własnością użytkowników. Administrator serwisu nie może ponieść konsekwencji za to co użytkownicy wstawiają, lub za to co czynią na stronie. Nie możesz używać tego serwisu do rozpowszechniania lub ściągania materiałów do których nie masz odpowiednich praw lub licencji. Użytkownicy odpowiedzialni są za przestrzeganie tych zasad. profil torrentcity.pl