Księżniczka Łabędzi 2 Tajemnica zamku *1997* [DVDRip XviD] [Dubbing PL] torrent

 
Księżniczka Łabędzi 2   Tajemnica zamku *1997* [DVDRip XviD] [Dubbing PL] torrent


Pozycję wystawił:
Ishimura
Dodano:09.06.2017
Kategoria:dla Dzieci
Rozmiar:699.25 MB
Seedów:0
Peerów:1
Pobrań:0
pobierz torrent

Księżniczka Łabędzi 2 Tajemnica zamku *1997* [DVDRip XviD]
[Dubbing PL] torrent


...( Info )...

Księżniczka Łabędzi: Tajemnica zamku
The Swan Princess and the Secret of the Castle (1997)
gatunek: Animacja, Familijny, Baśń
produkcja: USA
premiera: 19 czerwca 1997 (świat)
reżyseria: Richard Rich
scenariusz: Brian Nissen

http://www.filmweb.pl/film/Ksi%C4%99%C5%BCniczka+%C5%81ab%C4%99dzi%3A+Tajemnica+zamku-1997-107892

http://www.imdb.com/title/tt0120254/?ref_=fn_al_tt_1

https://fdb.pl/film/19118-ksiezniczka-labedzi-tajemnica-zamku

...( Opis )...

Księżniczka Odetta i Książę Derek obchodzą pierwszą rocznicę ślubu. Jest ona zakłócona przez pożary pól. Zły czarownik Clavius chce podbić świat i tym celu porywa królową Ubertę. Odetta i Derek zamierzają ją uratować.

...( Obsada )...

Michelle Nicastro...Odetta (głos)
Steve Vinovich...Puffin (głos)
Joey Camen...Knuckles (głos)
Doug Stone...Speed (głos)
Donald Sage Mackay...Jean-Bob (głos)
Christy Landers...Uberta (głos)
Douglas Sills...Derek (głos)
Jake Williamson...Clavius (głos)

...( Dane Techniczne )...

Format : AVI
Format/Info : Audio Video Interleave
File size : 699 MiB
Duration : 1h 8mn
Overall bit rate : 1 425 Kbps
Writing application : VirtualDubMod 1.5.10.2 (build 2540/release)
Writing library : VirtualDubMod build 2540/release

Video
ID : 0
Format : MPEG-4 Visual
Format profile : Advanced Simple@L5
Format settings, BVOP : 2
Format settings, QPel : No
Format settings, GMC : No warppoints
Format settings, Matrix : Default (H.263)
Codec ID : XVID
Codec ID/Hint : XviD
Duration : 1h 8mn
Bit rate : 1 287 Kbps
Width : 720 pixels
Height : 384 pixels
Display aspect ratio : 1.85:1
Frame rate : 25.000 fps
Color space : YUV
Chroma subsampling : 4:2:0
Bit depth : 8 bits
Scan type : Progressive
Compression mode : Lossy
Bits/(Pixel*Frame) : 0.186
Stream size : 631 MiB (90%)
Writing library : XviD 64

Audio
ID : 1
Format : MPEG Audio
Format version : Version 1
Format profile : Layer 3
Mode : Joint stereo
Mode extension : MS Stereo
Codec ID : 55
Codec ID/Hint : MP3
Duration : 1h 8mn
Bit rate mode : Constant
Bit rate : 128 Kbps
Channel(s) : 2 channels
Sampling rate : 48.0 KHz
Compression mode : Lossy
Stream size : 62.8 MiB (9%)
Alignment : Aligned on interleaves
Interleave, duration : 40 ms (1.00 video frame)
Interleave, preload duratio : 504 ms
Writing library : LAME3.98.2ŞŞŞŞŞ

PS/ POBRALES --------> SEEDUJ /THX/
 


Aby dodać komentarz należy się zalogować

Logowanie logowanie

Twoja ocena
Podobne torrenty
Biała Księżniczka - The White Princess [S01E02] [720p WEBRip x264-666] [Lektor PL]    Ksiezniczka labedzi - The Swan Princess (1994) [DVDRip] [rmvb] [Dub PL]    Barbie: Rockowa księżniczka - Barbie in Rock'n Royals *2015* [WEB-DL] [XviD-KiT] [Dubbing PL]    Biała księżniczka - The White Princess [S01E03] [480p] [WEBRip] [AC3] [XviD-Ralf] [LEKTOR PL]

Biała Księżniczka - The White Princess [S01E02] [720p.WEBRip.x264-666] [Lektor PL]

Ksiezniczka labedzi - The Swan Princess (1994) [DVDRip] [rmvb] [Dub PL]

Barbie: Rockowa księżniczka - Barbie in Rock\'n Royals *2015* [WEB-DL] [XviD-KiT] [Dubbing PL]

Biała księżniczka - The White Princess [S01E03] [480p] [WEBRip] [AC3] [XviD-Ralf] [LEKTOR PL]




Shoutbox (zawartość shoutboxa widoczna dla zalogowanych użytkowników)


Żaden z plików nie znajduje się na serwerze. Torrenty są własnością użytkowników. Administrator serwisu nie może ponieść konsekwencji za to co użytkownicy wstawiają, lub za to co czynią na stronie. Nie możesz używać tego serwisu do rozpowszechniania lub ściągania materiałów do których nie masz odpowiednich praw lub licencji. Użytkownicy odpowiedzialni są za przestrzeganie tych zasad. profil torrentcity.pl