Pszczółka Maja Film Maya the Bee Movie *2014* [BRRip] [XviD KiT] [Dubbing PL] torrent

 
Pszczółka Maja  Film   Maya the Bee Movie *2014* [BRRip] [XviD KiT] [Dubbing PL] torrent


Pozycję wystawił:
Ishimura
Dodano:09.06.2017
Kategoria:dla Dzieci
Rozmiar:699.53 MB
Seedów:12
Peerów:4
Pobrań:0
pobierz torrent

Pszczółka Maja Film Maya the Bee Movie *2014* [BRRip] [XviD
KiT] [Dubbing PL] torrent


INFO


Tytuł: Maya the Bee Movie
Polski Tytuł: Pszczółka Maja. Film

Produkcja: Australia, Niemcy
Gatunek: Animacja
Czas trwania: 88 min.
Premiera: 26.09.2014 - Polska, 04.09.2014 - Świat
Reżyseria: Alexs Stadermann
Scenariusz: Fin Edquist, Marcus Sauermann

http://www.filmweb.pl/film/Pszcz%C3%B3%C5%82ka+Maja.+Film-2014-709830

http://www.imdb.com/title/tt3336368/?ref_=fn_al_tt_1

https://fdb.pl/film/583834-pszczolka-maja-film


OPIS/


Maja to mała pszczółka o wielkim sercu i urzekającej osobowości! Urodzona w perfekcyjnie zorganizowanym społeczeństwie pszczół robotnic, Maja marzy o prawdziwej wolności oraz ekscytującym życiu pełnym zabawy i wielkich przygód. Prawda jest bowiem taka, że dla inteligentnej Mai świat jest zbyt interesującym i pozytywnie tajemniczym miejscem, by zmarnować swe życie na pracę w ulu. Nie ma drugiej takiej pszczoły jak Maja! Mająca nonkonformizm we krwi, pełna entuzjazmu pszczółka o bujnej wyobraźni chciałaby zasmakować wszystkiego, co świat oferuje.(upload by AgusiQ) Jej zachwyt nad pięknem otoczenia oraz wrodzony wdzięk zapewniają jej zniewalającą energię, która niedługo sprawi, że wszyscy przeciwnicy staną po jej stronie, a pozostałe pszczoły odnajdą w sobie chęć do radosnego, wyzbytego surowych zasad życia w zgodzie z samym sobą.


OBSADA


★ Agnieszka Fajlhauer...Maja
★ Mateusz Banasiuk...Gucio
★ Krzysztof Ibisz...Filip
★ Agnieszka Kunikowska...Bzyczyna
★ Teresa Lipowska...Królowa
★ Jerzy Kryszak...Gienek
★ Jarosław Boberek...Zenek
★ Ewa Kasprzyk...Niania

Polski dubbing


DANE/


Format : AVI
Format/Info : Audio Video Interleave
File size : 699 MiB
Duration : 1h 28mn
Overall bit rate : 1 109 Kbps
Writing application : VirtualDubMod 1.5.10.2 (build 2540/release)
Writing library : VirtualDubMod build 2540/release

Video
ID : 0
Format : MPEG-4 Visual
Format profile : Advanced Simple@L5
Format settings, BVOP : 2
Format settings, QPel : No
Format settings, GMC : No warppoints
Format settings, Matrix : Default (H.263)
Muxing mode : Packed bitstream
Codec ID : XVID
Codec ID/Hint : XviD
Duration : 1h 28mn
Bit rate : 928 Kbps
Width : 640 pixels
Height : 352 pixels
Display aspect ratio : 16:9
Frame rate : 23.976 fps
Color space : YUV
Chroma subsampling : 4:2:0
Bit depth : 8 bits
Scan type : Progressive
Compression mode : Lossy
Bits/(Pixel*Frame) : 0.172
Stream size : 585 MiB (84%)
Writing library : XviD 65

Audio
ID : 1
Format : MPEG Audio
Format version : Version 1
Format profile : Layer 3
Mode : Joint stereo
Mode extension : MS Stereo
Codec ID : 55
Codec ID/Hint : MP3
Duration : 1h 27mn
Bit rate mode : Constant
Bit rate : 128 Kbps
Channel(s) : 2 channels
Sampling rate : 48.0 KHz
Compression mode : Lossy
Stream size : 80.3 MiB (11%)
Alignment : Aligned on interleaves

PS/ POBRALES ---------> SEEDUJ /THX/
 


Aby dodać komentarz należy się zalogować

Logowanie logowanie

Twoja ocena
Podobne torrenty
Pszczółka Maja Film / Maya the Bee Movie (2014) [1080p BluRay AC3 x264-LLO] [Dubbing PL]    Pszczółka Maja - Maya the Bee *2010-2012* [1080p WEB-DL h264-eend] [Dubbing PL]    Pszczółka Maja Film / Maya the Bee Movie (2014) [BRRip] [XviD-KiT] [Dubbing PL]    Pszczółka Maja Film - Maya the Bee Movie *2014* [720p] [BRRip] [XviD-LTN] [Dubbing PL] [676kowal]

Pszczółka Maja. Film / Maya the Bee Movie (2014) [1080p.BluRay.AC3.x264-LLO] [Dubbing PL]

Pszczółka Maja - Maya the Bee *2010-2012* [1080p.WEB-DL.h264-eend] [Dubbing PL]

Pszczółka Maja. Film / Maya the Bee Movie (2014) [BRRip] [XviD-KiT] [Dubbing PL]

Pszczółka Maja. Film - Maya the Bee Movie *2014* [720p] [BRRip] [XviD-LTN] [Dubbing PL] [676kowal]




Shoutbox (zawartość shoutboxa widoczna dla zalogowanych użytkowników)


Żaden z plików nie znajduje się na serwerze. Torrenty są własnością użytkowników. Administrator serwisu nie może ponieść konsekwencji za to co użytkownicy wstawiają, lub za to co czynią na stronie. Nie możesz używać tego serwisu do rozpowszechniania lub ściągania materiałów do których nie masz odpowiednich praw lub licencji. Użytkownicy odpowiedzialni są za przestrzeganie tych zasad. profil torrentcity.pl