Tajemnica Zielonego Królestwa Epic *(2013)* [DVDRip x264][AC 3][Dubbing PL] torrent

 
Tajemnica Zielonego Królestwa   Epic *(2013)* [DVDRip x264][AC 3][Dubbing PL] torrent


Pozycję wystawił:
Ishimura
Dodano:09.06.2017
Kategoria:dla Dzieci
Rozmiar:1.96 GB
Seedów:1
Peerów:2
Pobrań:0
pobierz torrent

Tajemnica Zielonego Królestwa Epic *(2013)* [DVDRip x264][AC
3][Dubbing PL] torrent


...( Info )...


Reżyseria: Chris Wedge
Scenariusz: Tom J. Astle/ Matt Ember/ James V. Hart/ William Joyce/ Daniel Shere
Gatunek: Animacja/ Familijny/ Fantasy/ Przygodowy
Produkcja: USA
Premiera: 24 maja 2013 (Polska) 15 maja 2013 (świat)

http://www.filmweb.pl/film/Tajemnica+Zielonego+Kr%C3%B3lestwa-2013-484163

http://www.imdb.com/title/tt0848537/?ref_=fn_al_tt_2

https://fdb.pl/film/372928-tajemnica-zielonego-krolestwa


...( Opis )...


Nastoletnia Mary Katherine, córka ekscentrycznego profesora Bomby niespodziewanie trafia do sekretnej, leśnej krainy, która, jak sądziła, istnieje jedynie w wyobraźni jej ojca. Dziewczyna, namówiona przez Królową Tarę, przyłącza się do Liścian walczących w obronie lasu ze złymi wojownikami; przeżywa niesamowite przygody i pierwsze porywy serca za sprawą dzielnego i przystojnego chłopaka, Noda.


...( Dane Techniczne )...


Format : Matroska
Format version : Version 2
File size : 1.96 GiB
Duration : 1h 38mn
Overall bit rate : 2 848 Kbps
Writing application : HandBrake 0.9.5
Writing library : libmkv 0.6.4.1

Video
ID : 1
Format : AVC
Format/Info : Advanced Video Codec
Format profile : Main@L3
Format settings, CABAC : Yes
Format settings, ReFrames : 4 frames
Codec ID : V_MPEG4/ISO/AVC
Duration : 1h 38mn
Bit rate : 2 000 Kbps
Width : 720 pixels
Height : 304 pixels
Display aspect ratio : 2.35:1
Frame rate mode : Constant
Frame rate : 25.000 fps
Color space : YUV
Chroma subsampling : 4:2:0
Bit depth : 8 bits
Scan type : Progressive
Bits/(Pixel*Frame) : 0.365
Stream size : 1.35 GiB (69%)
Writing library : x264 core 112
Encoding settings : cabac=1 / ref=2 / deblock=1:-1:-1 / analyse=0x1:0x111 / me=hex / subme=6 / psy=1 / psy_rd=1.00:0.00 / mixed_ref=0 / me_range=16 / chroma_me=1 / trellis=0 / 8x8dct=0 / cqm=0 / deadzone=21,11 / fast_pskip=1 / chroma_qp_offset=-2 / threads=3 / sliced_threads=0 / nr=0 / decimate=1 / interlaced=0 / constrained_intra=0 / bframes=2 / b_pyramid=2 / b_adapt=1 / b_bias=0 / direct=1 / weightb=0 / open_gop=0 / weightp=2 / keyint=250 / keyint_min=25 / scenecut=40 / intra_refresh=0 / rc_lookahead=40 / rc=2pass / mbtree=1 / bitrate=2000 / ratetol=1.0 / qcomp=0.60 / qpmin=3 / qpmax=51 / qpstep=4 / cplxblur=20.0 / qblur=0.5 / ip_ratio=1.40 / aq=1:1.00
Language : English
Default : Yes
Forced : No
Color range : Limited
Color primaries : BT.601 NTSC
Transfer characteristics : BT.709
Matrix coefficients : BT.601

Audio #1
ID : 2
Format : AC-3
Format/Info : Audio Coding 3
Mode extension : CM (complete main)
Format settings, Endianness : Big
Codec ID : A_AC3
Duration : 1h 38mn
Bit rate mode : Constant
Bit rate : 448 Kbps
Channel(s) : 6 channels
Channel positions : Front: L C R, Side: L R, LFE
Sampling rate : 48.0 KHz
Compression mode : Lossy
Stream size : 315 MiB (16%)
Language : English
Default : Yes
Forced : No

Audio #2
ID : 3
Format : AC-3
Format/Info : Audio Coding 3
Mode extension : CM (complete main)
Format settings, Endianness : Big
Codec ID : A_AC3
Duration : 1h 38mn
Bit rate mode : Constant
Bit rate : 384 Kbps
Channel(s) : 6 channels
Channel positions : Front: L C R, Side: L R, LFE
Sampling rate : 48.0 KHz
Compression mode : Lossy
Stream size : 270 MiB (13%)
Language : Polish
Default : No
Forced : No


PS/ POBRALES ---------> SEEDUJ /THX/
 


Aby dodać komentarz należy się zalogować

Logowanie logowanie

Twoja ocena
Podobne torrenty
Barbie In A Mermaid Tale - Barbie i Podwodna Tajemnica *2010* [DVDRip XviD-FiRMA][DUBBiNG PL][ Dr No ]    Dzwoneczek i tajemnica piratów - Tinker Bell And The Pirate Fairy *2014* [BRRiP] [AC3] [XVID-MAJESTIC] [ENG] [jans12]    Tajemnica Twierdzy Szyfrów odc 1-13 [PDTV XviD-CoCoN][PL][TC][Kotlet13City]    Noc w muzeum: Tajemnica grobowca - Night At The Museum Secret Of The Tomb (2014) [BDRip] [XviD-MORS] [DUBBING PL] [lUKARIO007]

Barbie In A Mermaid Tale - Barbie i Podwodna Tajemnica *2010* [DVDRip.XviD-FiRMA][DUBBiNG PL][ Dr.No ]

Dzwoneczek i tajemnica piratów - Tinker Bell And The Pirate Fairy *2014* [BRRiP] [AC3] [XVID-MAJESTIC] [ENG] [jans12]

Tajemnica Twierdzy Szyfrów odc. 1-13 [PDTV.XviD-CoCoN][PL][TC][Kotlet13City]

Noc w muzeum: Tajemnica grobowca - Night At The Museum Secret Of The Tomb (2014) [BDRip] [XviD-MORS] [DUBBING PL] [lUKARIO007]




Shoutbox (zawartość shoutboxa widoczna dla zalogowanych użytkowników)


Żaden z plików nie znajduje się na serwerze. Torrenty są własnością użytkowników. Administrator serwisu nie może ponieść konsekwencji za to co użytkownicy wstawiają, lub za to co czynią na stronie. Nie możesz używać tego serwisu do rozpowszechniania lub ściągania materiałów do których nie masz odpowiednich praw lub licencji. Użytkownicy odpowiedzialni są za przestrzeganie tych zasad. profil torrentcity.pl