Shrek 2 *(2004)* [720p BluRay DD5 1 x264] [Dubbing PL] torrent

 
Shrek 2 *(2004)* [720p BluRay DD5 1 x264] [Dubbing PL] torrent


Pozycję wystawił:
Ishimura
Dodano:09.06.2017
Kategoria:dla Dzieci
Rozmiar:3.72 GB
Seedów:4
Peerów:2
Pobrań:0
pobierz torrent

Shrek 2 *(2004)* [720p BluRay DD5 1 x264] [Dubbing PL] torrent


...( Info )...


Tytuł: Shrek 2

Gatunek: Animacja, Familijny, Komedia
Produkcja: USA
Pemiera: 2 lipca 2004 (Polska) 15 maja 2004 (świat)
Reżyseria: Andrew Adamson, Kelly Asbury, Conrad Vernon
Scenariusz: David N. Weiss, Joe Stillman, Andrew Adamson, J. David Stem

http://www.filmweb.pl/2.Shrek

http://www.imdb.com/title/tt0298148/?ref_=fn_al_tt_1

https://fdb.pl/film/77-shrek-2


...( Opis )...


Po powrocie z miesiąca miodowego Shrek i Fiona postanawiają odwiedzić rodziców księżniczki, do których dotarła jedynie wiadomość o ślubie ich córki z prawdziwą miłością jej życia. Młoda para rusza więc do królestwa Far Far Away. Problem jednak w tym, że rodzice Fiony w ogóle nie zdawali sobie sprawy z ciążącej na niej klątwy. W związku z tym rodzice księżniczki byli pewni, iż poślubiła ona kogoś z wyższych sfer, kawalera pokroju Lorda Farquaada - władcy rządzącego zasobnym państwem. Jakież więc jest zdziwienie, kiedy ich zięć okazuje się ważącym ponad 300 kilogramów zielonym ogrem nie przywiązującym wagi do higieny, któremu w dodatku towarzyszy gadający osioł. Szokiem jest również wiadomość, że ich ukochana córka nocą przechodzi straszną metamorfozę. Co gorsza, w tajemniczych okolicznościach ginie siostra Fiony. Przed ogrem i jego kompanią stoi nowe wyzwanie.


...( Obsada )...


Zbigniew Zamachowski - Shrek
Jerzy Stuhr - Osioł
Agnieszka Kunikowska - Księżniczka Fiona
Małgorzata Zajączkowska - Królowa Lillian
Jarosław Domin - Pinokio
Wojciech Mann - Brzydka siostra przyrodnia
Zbigniew Suszyński - Książę z bajki
Jarosław Boberek - Trzy świnki
Wojciech Malajkat - Kot w butach
Dorota Zięciowska - Matka chrzestna
Janusz Bukowski - Król Harol
Tomasz Bednarek - Piernikowy Ludzik
Mirosław Zbrojewicz - Wilk


...( Dane Techniczne )...


Format : Matroska
Format version : Version 4 / Version 2
File size : 3.72 GiB
Duration : 1h 32mn
Overall bit rate : 5 765 Kbps
Encoded date : UTC 2013-12-24 10:07:54
Writing application : mkvmerge v6.5.0 ('Isn't she lovely') built on Oct 20 2013 12:50:05
Writing library : libebml v1.3.0 + libmatroska v1.4.1

Video
ID : 1
Format : AVC
Format/Info : Advanced Video Codec
Format profile : High@L4.1
Format settings, CABAC : Yes
Format settings, ReFrames : 8 frames
Codec ID : V_MPEG4/ISO/AVC
Duration : 1h 32mn
Bit rate : 5 126 Kbps
Width : 1 280 pixels
Height : 720 pixels
Display aspect ratio : 16:9
Frame rate mode : Constant
Frame rate : 23.976 fps
Color space : YUV
Chroma subsampling : 4:2:0
Bit depth : 8 bits
Scan type : Progressive
Bits/(Pixel*Frame) : 0.232
Stream size : 3.23 GiB (87%)
Writing library : x264 core 98 r1649 c54c47d
Encoding settings : cabac=1 / ref=8 / deblock=1:-1:-1 / analyse=0x3:0x113 / me=umh / subme=9 / psy=1 / psy_rd=1.00:0.10 / mixed_ref=1 / me_range=48 / chroma_me=1 / trellis=2 / 8x8dct=1 / cqm=0 / deadzone=21,11 / fast_pskip=0 / chroma_qp_offset=-5 / threads=6 / sliced_threads=0 / nr=0 / decimate=0 / interlaced=0 / constrained_intra=0 / bframes=6 / b_pyramid=2 / b_adapt=2 / b_bias=0 / direct=3 / weightb=1 / weightp=2 / keyint=250 / keyint_min=25 / scenecut=40 / intra_refresh=0 / rc_lookahead=48 / rc=2pass / mbtree=1 / bitrate=5126 / ratetol=1.0 / qcomp=0.60 / qpmin=10 / qpmax=51 / qpstep=4 / cplxblur=20.0 / qblur=0.5 / ip_ratio=1.40 / aq=1:0.00
Language : English
Default : Yes
Forced : No

Audio
ID : 2
Format : AC-3
Format/Info : Audio Coding 3
Mode extension : CM (complete main)
Format settings, Endianness : Big
Codec ID : A_AC3
Duration : 1h 32mn
Bit rate mode : Constant
Bit rate : 640 Kbps
Channel(s) : 6 channels
Channel positions : Front: L C R, Side: L R, LFE
Sampling rate : 48.0 KHz
Compression mode : Lossy
Stream size : 423 MiB (11%)
Language : Polish
Default : Yes
Forced : No


PS/ POBRALES -------> SEEDUJ /THX/
 


Aby dodać komentarz należy się zalogować

Logowanie logowanie

Twoja ocena
Podobne torrenty
Shrek: Ostatni rozdział - Shrek Forever After *2010* [DVDRip][RMVB][Dubbing PL][xasienkax][TP]    Shrek [2001] DVDRip Dubbing PL    Shrek Trzeci - Shrek the Third *2007* [PAL] [DVD5] [Napisy i Dubbing PL]    Shrek: Ostatni rozdział - Shrek Forever After *2010* [CAM XviD-RelizLab] [RUS]

Shrek: Ostatni rozdział - Shrek Forever After *2010* [DVDRip][RMVB][Dubbing PL][xasienkax][TP]

Shrek [2001] DVDRip Dubbing PL

Shrek Trzeci - Shrek the Third *2007* [PAL] [DVD5] [Napisy i Dubbing PL]

Shrek: Ostatni rozdział - Shrek Forever After *2010* [CAM.XviD-RelizLab] [RUS]




Shoutbox (zawartość shoutboxa widoczna dla zalogowanych użytkowników)


Żaden z plików nie znajduje się na serwerze. Torrenty są własnością użytkowników. Administrator serwisu nie może ponieść konsekwencji za to co użytkownicy wstawiają, lub za to co czynią na stronie. Nie możesz używać tego serwisu do rozpowszechniania lub ściągania materiałów do których nie masz odpowiednich praw lub licencji. Użytkownicy odpowiedzialni są za przestrzeganie tych zasad. profil torrentcity.pl