Fistaszki wersja kinowa The Peanuts Movie *2015* [720p] [BDRip] [XviD] [DD5 1 MAXX] [Dubbing PL] torrent

 
Fistaszki   wersja kinowa   The Peanuts Movie *2015* [720p] [BDRip] [XviD] [DD5 1 MAXX] [Dubbing PL] torrent


Pozycję wystawił:
Ishimura
Dodano:09.06.2017
Kategoria:dla Dzieci
Rozmiar:1.60 GB
Seedów:2
Peerów:2
Pobrań:0
pobierz torrent

Fistaszki wersja kinowa The Peanuts Movie *2015* [720p] [BDRip]
[XviD] [DD5 1 MAXX] [Dubbing PL] torrent


...( Info )...


Produkcja: USA
Gatunek: Animacja | Komedia | Przygodowy
Premiera: 01.01.2016 - Polska | 05.11.2015 - Świat
Reżyseria: Steve Martino | Paul Feig
Scenariusz: Bryan Schulz | Craig Schulz | Cornelius Uliano
Czas trwania: 88 min.

http://www.filmweb.pl/film/Fistaszki+-+wersja+kinowa-2015-671644

http://www.imdb.com/title/tt2452042/?ref_=fn_al_tt_1

https://fdb.pl/film/541592-fistaszki-wersja-kinowa


...( Opis )...


Bohaterowie legendarnych, cieszących się niesłabnącą popularnością od ponad pół wieku opowieści rysunkowych Charlesa M. Schulza: Charlie Brown, pies Snoopy i ich przyjaciele w nowym wydaniu animowanej komedii przygodowej wyprodukowanej przez studio Blue Sky, w którym powstała słynna ”Epoka lodowcowa”.


...( Obsada )...


★ Olaf Marchwicki - Charlie
★ Marianna Obuchowicz - Sally
★ Zuzanna Jaźwińska - Lucy
★ Jakub Jankiewicz - Franklin
★ Jan Barwiński - Linus
★ Zofia Modej - Marcie
★ Amelia Natkaniec - Peppermint Patty
★ Sara Lewandowska - Ruda


...( Dane Techniczne )...


Format : AVI
Format/Info : Audio Video Interleave
File size : 1.60 GiB
Duration : 1h 28mn
Overall bit rate : 2 597 Kbps
Writing application : VirtualDubMod 1.5.10.2 (build 2540/release)
Writing library : VirtualDubMod build 2540/release

Video
ID : 0
Format : MPEG-4 Visual
Format profile : Advanced Simple@L5
Format settings, BVOP : 1
Format settings, QPel : No
Format settings, GMC : No warppoints
Format settings, Matrix : Default (H.263)
Codec ID : XVID
Codec ID/Hint : XviD
Duration : 1h 28mn
Bit rate : 2 203 Kbps
Width : 1 280 pixels
Height : 688 pixels
Display aspect ratio : 1.85:1
Frame rate : 23.976 fps
Color space : YUV
Chroma subsampling : 4:2:0
Bit depth : 8 bits
Scan type : Progressive
Compression mode : Lossy
Bits/(Pixel*Frame) : 0.104
Stream size : 1.36 GiB (85%)
Writing library : XviD 67

Audio
ID : 1
Format : AC-3
Format/Info : Audio Coding 3
Mode extension : CM (complete main)
Format settings, Endianness : Big
Codec ID : 2000
Duration : 1h 28mn
Bit rate mode : Constant
Bit rate : 384 Kbps
Channel(s) : 6 channels
Channel positions : Front: L C R, Side: L R, LFE
Sampling rate : 48.0 KHz
Compression mode : Lossy
Stream size : 242 MiB (15%)
Alignment : Split accross interleaves
Interleave, duration : 42 ms (1.00 video frame)
Interleave, preload duratio : 500 ms


PS/ POBRALES ------> SEEDDUJ /THX/
 


Aby dodać komentarz należy się zalogować

Logowanie logowanie

Twoja ocena
Podobne torrenty
Fistaszki wersja kinowa 3D The Peanuts Movie *2015* [mini HD 1080p 3D Half Over Under DualAudio AC3 BluRay x264 SONDA] [Dubbing i Napisy PL]    Fistaszki - wersja kinowa - The Peanuts Movie *2015* [BRRip] [XviD-KiT] [Dubbing PL]    Fistaszki - wersja kinowa / The Peanuts Movie (2015) [BRRip XViD-MORS] [DUBBING PL]    Fistaszki - wersja kinowa / The Peanuts Movie (2015) [DVDSCR] [XviD] [AC3-OzW] [Napisy PL]

Fistaszki   wersja kinowa 3D   The Peanuts Movie *2015* [mini HD 1080p 3D Half Over Under DualAudio AC3 BluRay x264 SONDA] [Dubbing i Napisy PL]

Fistaszki - wersja kinowa - The Peanuts Movie *2015* [BRRip] [XviD-KiT] [Dubbing PL]

Fistaszki - wersja kinowa / The Peanuts Movie (2015) [BRRip.XViD-MORS] [DUBBING PL]

Fistaszki - wersja kinowa / The Peanuts Movie (2015) [DVDSCR] [XviD] [AC3-OzW] [Napisy PL]




Shoutbox (zawartość shoutboxa widoczna dla zalogowanych użytkowników)


Żaden z plików nie znajduje się na serwerze. Torrenty są własnością użytkowników. Administrator serwisu nie może ponieść konsekwencji za to co użytkownicy wstawiają, lub za to co czynią na stronie. Nie możesz używać tego serwisu do rozpowszechniania lub ściągania materiałów do których nie masz odpowiednich praw lub licencji. Użytkownicy odpowiedzialni są za przestrzeganie tych zasad. profil torrentcity.pl