Shrek *(2001)* [720p BluRay DD5 1 x264] [Dubbing PL] torrent

 
Shrek *(2001)*  [720p BluRay DD5 1 x264] [Dubbing PL] torrent


Pozycję wystawił:
Ishimura
Dodano:09.06.2017
Kategoria:dla Dzieci
Rozmiar:3.85 GB
Seedów:2
Peerów:1
Pobrań:0
pobierz torrent

Shrek *(2001)* [720p BluRay DD5 1 x264] [Dubbing PL] torrent


...( Info )...


Tytuł: Shrek

Gatunek: Animacja, Familijny, Komedia
Produkcja: USA
Premiera: 13 lipca 2001 (Polska) 22 kwietnia 2001 (świat)
Reżyseria: Andrew Adamson, Vicky Jenson
Ccenariusz: Joe Stillman, Roger S.H. Schulman, Ted Elliott, Terry Rossio

http://www.filmweb.pl/Shrek

http://www.imdb.com/title/tt0126029/?ref_=fn_al_tt_1

https://fdb.pl/film/78-shrek


...( Opis )...


Dawno, dawno temu żył sobie... wielki, obleśny ogr, nie lubiący towarzystwa i nad życie ceniący sobie swoją prywatność. Pewnego dnia ratuje z opresji rozgadanego Osła, który od tamtej pory nie opuszcza go na krok. Kiedy samotnia Shreka przeżywa nalot bajkowych bohaterów, razem ruszają do Dulloc, z którego owi intruzi zostali wygonieni. Wygrywają miejscowy turniej, w którym nagrądą jest możliwośc oclenia pięknej księżniczki. Wzamian za to włada Dulloc - Lord Farquad obiecuje im, że pozbędzie się nie proszonych gości z samotni Shreka. I wtedy zaczyna się wielka przygoda Shreka, Osła i księżniczki Fiony.


...( Obsada )...


Shrek : .... Zbigniew Zamachowski
Królewna Fiona .... Agnieszka Kunikowska
Lord Farquaad .... Adam Ferency
Osioł .... Jerzy Stuhr


...( Dane Techniczne )...


Format : Matroska
Format version : Version 4 / Version 2
File size : 3.85 GiB
Duration : 1h 30mn
Overall bit rate : 6 110 Kbps
Encoded date : UTC 2013-12-24 09:26:34
Writing application : mkvmerge v6.5.0 ('Isn't she lovely') built on Oct 20 2013 12:50:05
Writing library : libebml v1.3.0 + libmatroska v1.4.1

Video
ID : 1
Format : AVC
Format/Info : Advanced Video Codec
Format profile : High@L4.1
Format settings, CABAC : Yes
Format settings, ReFrames : 8 frames
Codec ID : V_MPEG4/ISO/AVC
Duration : 1h 30mn
Bit rate : 5 470 Kbps
Width : 1 280 pixels
Height : 720 pixels
Display aspect ratio : 16:9
Frame rate mode : Constant
Frame rate : 23.976 fps
Color space : YUV
Chroma subsampling : 4:2:0
Bit depth : 8 bits
Scan type : Progressive
Bits/(Pixel*Frame) : 0.248
Stream size : 3.37 GiB (88%)
Writing library : x264 core 98 r1649 c54c47d
Encoding settings : cabac=1 / ref=8 / deblock=1:-1:-1 / analyse=0x3:0x113 / me=umh / subme=9 / psy=1 / psy_rd=1.00:0.10 / mixed_ref=1 / me_range=48 / chroma_me=1 / trellis=2 / 8x8dct=1 / cqm=0 / deadzone=21,11 / fast_pskip=0 / chroma_qp_offset=-5 / threads=6 / sliced_threads=0 / nr=0 / decimate=0 / interlaced=0 / constrained_intra=0 / bframes=6 / b_pyramid=2 / b_adapt=2 / b_bias=0 / direct=3 / weightb=1 / weightp=2 / keyint=250 / keyint_min=25 / scenecut=40 / intra_refresh=0 / rc_lookahead=48 / rc=2pass / mbtree=1 / bitrate=5470 / ratetol=1.0 / qcomp=0.60 / qpmin=10 / qpmax=51 / qpstep=4 / cplxblur=20.0 / qblur=0.5 / ip_ratio=1.40 / aq=1:0.00
Language : English
Default : Yes
Forced : No

Audio
ID : 2
Format : AC-3
Format/Info : Audio Coding 3
Mode extension : CM (complete main)
Format settings, Endianness : Big
Codec ID : A_AC3
Duration : 1h 30mn
Bit rate mode : Constant
Bit rate : 640 Kbps
Channel(s) : 6 channels
Channel positions : Front: L C R, Side: L R, LFE
Sampling rate : 48.0 KHz
Compression mode : Lossy
Stream size : 412 MiB (10%)
Language : Polish
Default : Yes
Forced : No


PS/ POBRALES --------. SEEDUJ /THX/
 


Aby dodać komentarz należy się zalogować

Logowanie logowanie

Twoja ocena
Podobne torrenty
Shrek: Ostatni rozdział - Shrek Forever After *2010* [TS XVID V2-PrisM] [ENG]    Shrek Forever / Shrek Forever After[2010][DVDRip XviD-MCK][DubbingPL][TC][FS]    Shrek ma wielkie oczy / Scared Shrekless *2010* [DVDRip XviD AC3-J25] [Dubbing PL]    Shrek Forever After *2010* [R5 H264 Feel-Free][ENG][irup]

Shrek: Ostatni rozdział - Shrek Forever After *2010* [TS.XVID.V2-PrisM] [ENG]

Shrek Forever / Shrek Forever After[2010][DVDRip.XviD-MCK][DubbingPL][TC][FS]

Shrek ma wielkie oczy / Scared Shrekless *2010* [DVDRip.XviD.AC3-J25] [Dubbing PL]

Shrek Forever After *2010* [R5.H264.Feel-Free][ENG][irup]




Shoutbox (zawartość shoutboxa widoczna dla zalogowanych użytkowników)


Żaden z plików nie znajduje się na serwerze. Torrenty są własnością użytkowników. Administrator serwisu nie może ponieść konsekwencji za to co użytkownicy wstawiają, lub za to co czynią na stronie. Nie możesz używać tego serwisu do rozpowszechniania lub ściągania materiałów do których nie masz odpowiednich praw lub licencji. Użytkownicy odpowiedzialni są za przestrzeganie tych zasad. profil torrentcity.pl