Ekspres Polarny The Polar Expres *2004* [DVDRip] [XviD] [AC3] [Dubbing PL] torrent

 
Ekspres Polarny   The Polar Expres *2004* [DVDRip] [XviD] [AC3] [Dubbing PL] torrent


Pozycję wystawił:
Ishimura
Dodano:09.06.2017
Kategoria:dla Dzieci
Rozmiar:1.66 GB
Seedów:3
Peerów:2
Pobrań:0
pobierz torrent

Ekspres Polarny The Polar Expres *2004* [DVDRip] [XviD] [AC3]
[Dubbing PL] torrent


...( Info )...

Tytuł: The Polar Express
Polski Tytuł: Ekspres polarny

reżyseria: Robert Zemeckis
scenariusz: William Broyles Jr.Robert Zemeckis
gatunek: Animacja Familijny Fantasy Przygodowy
produkcja: USA
premiera: 3 grudnia 2004 (Polska) 21 października 2004 (świat)

http://www.filmweb.pl/Ekspres.Polarny

http://www.imdb.com/title/tt0338348/?ref_=nv_sr_3

https://fdb.pl/film/485-ekspres-polarny

...( Opis )...

Historia 8-letniego chłopca, który zaczyna tracić wiarę w istnienie Świętego Mikołaja. W Wigilię Bożego Narodzenia zostaje obudzony przez nadjeżdżający pociąg. Osobliwy pan Konduktor zaprasza chłopca w niezwykłą podróż na sam Biegun Północny. Podczas podróży poznaje on trójkę nowych przyjaciół, z którymi przeżyje wiele niezwykłych przygód i, co najważniejsze - odzyska wiarę w Mikołaja.

...( Obsada )...

★ Kajetan Lewandowski – Krzyś
★ Zuzanna Adamczyk – Hania
★ Miłosz Woźniak – Bartek
★ Rafał Kołsut – Mądrala
★ Krzysztof Dracz – Konduktor
★ Adam Ferency – Święty Mikołaj; Tata
★ Dorota Chotecka – Mama
★ Zuzanna Bernat – Sara

...( Dane Techniczne )...

Format : AVI
Format/Info : Audio Video Interleave
Format profile : OpenDML
Format settings : rec
File size : 1.65 GiB
Duration : 1h 35mn
Overall bit rate : 2 472 Kbps
Movie name : Ekspres Polarny.Title1.DVDRip
Writing application : AVI-Mux GUI 1.17.8.3, Feb 16 201019:42:50

Video
ID : 0
Format : MPEG-4 Visual
Format profile : Simple@L3
Format settings, BVOP : No
Format settings, QPel : No
Format settings, GMC : No warppoints
Format settings, Matrix : Default (H.263)
Codec ID : XVID
Codec ID/Hint : XviD
Duration : 1h 35mn
Bit rate : 2 018 Kbps
Width : 720 pixels
Height : 300 pixels
Display aspect ratio : 2.40:1
Frame rate : 25.000 fps
Color space : YUV
Chroma subsampling : 4:2:0
Bit depth : 8 bits
Scan type : Progressive
Compression mode : Lossy
Bits/(Pixel*Frame) : 0.374
Stream size : 1.35 GiB (82%)
Writing library : XviD 1.2.1 (UTC 2008-12-04)

Audio
ID : 1
Format : AC-3
Format/Info : Audio Coding 3
Mode extension : CM (complete main)
Format settings, Endianness : Big
Codec ID : 2000
Duration : 1h 35mn
Bit rate mode : Constant
Bit rate : 448 Kbps
Channel(s) : 6 channels
Channel positions : Front: L C R, Side: L R, LFE
Sampling rate : 48.0 KHz
Compression mode : Lossy
Stream size : 307 MiB (18%)
Alignment : Aligned on interleaves
Interleave, duration : 64 ms (1.60 video frames)
Interleave, preload duratio : 192 ms

PS/ POBRALES ------> SEEDUJ /THX/
 


Aby dodać komentarz należy się zalogować

Logowanie logowanie

Twoja ocena
Podobne torrenty
Rapid Ekspress PL Program do wkejenia linków z rapid    Przesyłka ekspresowa / Coursier *2010* [DVDRip] [XviD-MCK] [LEKTOR PL] [TC] [AgusiQ]    Przesylka Ekspresowa / Coursier *2010* [DVDRip XViD-G0M0Ri45][Lektor PL][TC][Kotlet13City]    Przesyłka Ekspresowa - Coursier *2010* [DVDRip] [XviD] [AC3] [Lektor PL] [TC][irup★]

Rapid Ekspress PL Program do wkejenia linków z rapid

Przesyłka ekspresowa / Coursier *2010* [DVDRip] [XviD-MCK]                      [LEKTOR PL] [TC] [AgusiQ]

Przesylka Ekspresowa / Coursier *2010* [DVDRip.XViD-G0M0Ri45][Lektor PL][TC][Kotlet13City]

Przesyłka Ekspresowa - Coursier *2010* [DVDRip] [XviD] [AC3] [Lektor PL] [TC][irup★]




Shoutbox (zawartość shoutboxa widoczna dla zalogowanych użytkowników)


Żaden z plików nie znajduje się na serwerze. Torrenty są własnością użytkowników. Administrator serwisu nie może ponieść konsekwencji za to co użytkownicy wstawiają, lub za to co czynią na stronie. Nie możesz używać tego serwisu do rozpowszechniania lub ściągania materiałów do których nie masz odpowiednich praw lub licencji. Użytkownicy odpowiedzialni są za przestrzeganie tych zasad. profil torrentcity.pl