Kosmiczne łowy-Spacehunter-Adventures in the Forbidden Zone (1983)[BRRip 1080p x264 by alE13 AC3/DTS][Lektor i Napisy PL][Eng] torrent

 
Kosmiczne łowy-Spacehunter-Adventures in the Forbidden Zone (1983)[BRRip 1080p x264 by alE13 AC3/DTS][Lektor i Napisy PL][Eng] torrent


Pozycję wystawił:
Ishimura
Dodano:19.05.2017
Kategoria:x264
Rozmiar:7.53 GB
Seedów:9
Peerów:11
Pobrań:0
pobierz torrent

Kosmiczne łowy-Spacehunter-Adventures in the Forbidden Zone
(1983)[BRRip 1080p x264 by alE13 AC3/DTS][Lektor i Napisy PL][Eng] torrent


http://i.imgur.com/VlG3HzJ.jpg

http://www.imdb.com/title/tt0086346/
http://www.filmweb.pl/film/Kosmiczne+%C5%82owy-1983-99752

Plik zawiera Sample.

reżyseria: Lamont Johnson
scenariusz: Daniel Goldberg,Len Blum,David Preston,Edith Rey
gatunek: Przygodowy,Sci-Fi
produkcja: Kanada,USA
premiera: 20-05-1983
muzyka: Elmer Bernstein
zdjęcia: Frank Tidy
czas: 1h 29min

opis:

Three women make an emergency landing on a planet plagued with a fatal disease, but are captured by dictator Overdog. Adventurer
Wolff goes there to rescue them and meets Niki, the only Earthling left from a medical expedition. Combining their talents, they
try to rescue the women.

W roku 2136 Gwiezdny Łowca (Peter Strauss) przemierza przestrzeń kosmiczną prywatnym statkiem w poszukiwaniu łatwego zarobku.
Pewnego dnia odbiera sygnał S.O.S. pochodzący z kosmicznego liniowca. Bohater i jego przypadkowo poznana towarzyszka wyruszają
do Strefy Zakazanej, aby ratować cztery pasażerki statku porwane przez straszliwych mutantów...

obsada:

Peter Strauss, Molly Ringwald, Ernie Hudson

http://i.imgur.com/9CMQdYp.jpg
http://i.imgur.com/lr8saje.jpg
http://i.imgur.com/5ZHtVTX.jpg
http://i.imgur.com/shPn5wW.jpg

dane techniczne:

Spacehunter-Adventures in the Forbidden Zone (1983)-alE13.mkv
Format : Matroska
Format version : Version 4 / Version 2
File size : 7.48 GiB
Duration : 1 h 29 min
Overall bit rate mode : Variable
Overall bit rate : 11.9 Mb/s
Movie name : Spacehunter-Adventures in the Forbidden Zone (1983)-alE13
Encoded date : UTC 2017-05-17 16:59:06
Writing application : mkvmerge v8.1.0 ('Psychedelic Postcard') 64bit
Writing library : libebml v1.3.1 + libmatroska v1.4.2
Cover : Yes
Attachments : cover.jpg

Video
ID : 1
Format : AVC
Format/Info : Advanced Video Codec
Format profile : High@L4.1
Format settings, CABAC : Yes
Format settings, ReFrames : 2 frames
Codec ID : V_MPEG4/ISO/AVC
Duration : 1 h 29 min
Bit rate : 10.9 Mb/s
Width : 1 920 pixels
Height : 1 080 pixels
Display aspect ratio : 16:9
Frame rate mode : Constant
Frame rate : 23.976 (24000/1001) FPS
Color space : YUV
Chroma subsampling : 4:2:0
Bit depth : 8 bits
Scan type : Progressive
Bits/(Pixel*Frame) : 0.219
Stream size : 6.83 GiB (91%)
Title : Spacehunter-Adventures in the Forbidden Zone (1983)-alE13
Writing library : x264 core 142
Default : Yes
Forced : No
Color range : Limited
Color primaries : BT.709
Transfer characteristics : BT.709
Matrix coefficients : BT.709

Audio #1
ID : 2
Format : AC-3
Format/Info : Audio Coding 3
Mode extension : CM (complete main)
Format settings, Endianness : Big
Codec ID : A_AC3
Duration : 1 h 29 min
Bit rate mode : Constant
Bit rate : 256 kb/s
Channel(s) : 2 channels
Channel positions : Front: L R
Sampling rate : 48.0 kHz
Frame rate : 31.250 FPS (1536 spf)
Compression mode : Lossy
Stream size : 165 MiB (2%)
Title : Spacehunter-Adventures in the Forbidden Zone (1983)-alE13_AC3
Language : English
Default : No
Forced : No

Audio #2
ID : 3
Format : AC-3
Format/Info : Audio Coding 3
Mode extension : CM (complete main)
Format settings, Endianness : Big
Codec ID : A_AC3
Duration : 1 h 29 min
Bit rate mode : Constant
Bit rate : 256 kb/s
Channel(s) : 2 channels
Channel positions : Front: L R
Sampling rate : 44.1 kHz
Frame rate : 28.711 FPS (1536 spf)
Compression mode : Lossy
Delay relative to video : 30 s 700 ms
Stream size : 164 MiB (2%)
Title : Spacehunter-Adventures in the Forbidden Zone (1983)-alE13_AC3
Language : Polish
Default : Yes
Forced : No

Audio #3
ID : 4
Format : FLAC
Format/Info : Free Lossless Audio Codec
Codec ID : A_FLAC
Duration : 1 h 29 min
Bit rate mode : Variable
Bit rate : 529 kb/s
Channel(s) : 2 channels
Channel positions : Front: L R
Sampling rate : 48.0 kHz
Frame rate : 11.719 FPS (4096 spf)
Bit depth : 16 bits
Stream size : 340 MiB (4%)
Title : Spacehunter-Adventures in the Forbidden Zone (1983)-alE13_FLAC
Writing library : libFLAC 1.2.1 (UTC 2007-09-17)
Language : English
Default : No
Forced : No

Text
ID : 5
Format : UTF-8
Codec ID : S_TEXT/UTF8
Codec ID/Info : UTF-8 Plain Text
Duration : 1 h 24 min
Bit rate : 45 b/s
Count of elements : 688
Stream size : 28.2 KiB (0%)
Title : Spacehunter-Adventures in the Forbidden Zone (1983)-alE13
Language : Polish
Default : Yes
Forced : No

Menu
00:00:00.000 : en:Start
00:04:15.100 : en:Natives Are Restless
00:06:01.267 : en:Wolff & Chalmers
00:10:04.801 : en:Terra 11 Rescue Mission
00:12:50.335 : en:Visitors
00:18:38.702 : en:Grandman Patterson
00:20:20.603 : en:Best Model Ever
00:21:32.903 : en:Serum Depot
00:23:55.170 : en:Niki the Twister
00:27:14.570 : en:The Chemist
00:28:12.004 : en:"I Don't Eat No Dogs!"
00:30:32.838 : en:New Friends
00:31:48.405 : en:Niki Comes Clean
00:34:32.039 : en:Sector Chief Washington
00:43:59.739 : en:Mutants!
00:46:58.207 : en:Overdog
00:48:38.741 : en:Wet & Wild
00:55:33.342 : en:The Deal
01:01:17.909 : en:"Children... Aren't They?"
01:04:03.909 : en:The Graveyard
01:06:06.510 : en:"Let the Games Begin!"
01:10:30.344 : en:Hitting the Slave Pens
01:11:49.578 : en:Consolation Prize
01:14:11.112 : en:The Maze
01:17:50.679 : en:The Fusion Tube
01:19:32.679 : en:Wolff vs. Overdog
01:22:40.179 : en:Graveyard Destroyed
01:23:27.479 : en:Trust Words
 


Aby dodać komentarz należy się zalogować

Logowanie logowanie

Twoja ocena
Podobne torrenty
Kosmiczne Przygody Jennifer - The Glass Bottom Boat *1966* [CUSTOM] [DVDRip] [AC3] [XviD-RETRO] [Lektor PL]    Philip K Dick - Kosmiczne marionetki (1998) [PL] [rtf]    Kosmiczne jaja - Spaceballs *1987* [x264-TDM]eng    LEGO: Liga Sprawiedliwości - Kosmiczne starcie - Lego DC Comics Super Heroes: Justice League - Cosmic Clash *2016* [BRRip] [XviD-KiT] [Lektor PL]

Kosmiczne Przygody Jennifer - The Glass Bottom Boat *1966* [CUSTOM] [DVDRip] [AC3] [XviD-RETRO] [Lektor PL]

Philip K Dick - Kosmiczne marionetki (1998) [PL] [rtf]

Kosmiczne jaja - Spaceballs *1987* [x264-TDM]eng

LEGO: Liga Sprawiedliwości - Kosmiczne starcie - Lego DC Comics Super Heroes: Justice League - Cosmic Clash *2016* [BRRip] [XviD-KiT] [Lektor PL]




Shoutbox (zawartość shoutboxa widoczna dla zalogowanych użytkowników)


Żaden z plików nie znajduje się na serwerze. Torrenty są własnością użytkowników. Administrator serwisu nie może ponieść konsekwencji za to co użytkownicy wstawiają, lub za to co czynią na stronie. Nie możesz używać tego serwisu do rozpowszechniania lub ściągania materiałów do których nie masz odpowiednich praw lub licencji. Użytkownicy odpowiedzialni są za przestrzeganie tych zasad. profil torrentcity.pl