Mad Max: Na drodze gniewu 3D[OU] Mad Max: Fury Road *2015* [60 FPS][1080p 3D Half Over Under TrueHD 7 1 Atmos BluRay x264 LEON 345] [Lektor i napisy PL] torrent

 
Mad Max: Na drodze gniewu 3D[OU]  Mad Max: Fury Road *2015* [60 FPS][1080p 3D Half Over Under TrueHD 7 1 Atmos BluRay x264 LEON 345] [Lektor i napisy PL] torrent


Pozycję wystawił:
Ishimura
Dodano:06.05.2017
Kategoria:3D
Rozmiar:29.96 GB
Seedów:2
Peerów:4
Pobrań:1450
pobierz torrent

Mad Max: Na drodze gniewu 3D[OU] Mad Max: Fury Road *2015* [60
FPS][1080p 3D Half Over Under TrueHD 7 1 Atmos BluRay x264 LEON
345] [Lektor i napisy PL] torrent


Mad Max: Na drodze gniewu - Mad Max: Fury Road *2015* (60 FPS)PL 3D.Half.Over-Under.1080p.BDRip.DolbyAtmos7.1 - Leon 345
==============================================
!!!!!!!!!!!!!60 FPS !!!!!!!!!!!!!!!!!!!!!!!!!
==============================================
Film w wersji 3D Over-Under
Do odtworzenia filmu WYMAGANY odpowiedni sprzęt (TV 3D).

Produkcja: Australia, USA
Premiera: 22 maja 2015 (Polska) 7 maja 2015 (świat)
Reżyseria: George Miller
Scenariusz: Brendan McCarthy, Nick Lathouris, George Miller
Muzyka: Junkie XL
Zdjęcia: John Seale
Gatunek: sensacyjny, sci-Fi

Prześladowany przez demony przeszłości Mad Max uważa, że najlepszym sposobem na przeżycie jest samotna wędrówka po świecie. Zostaje jednak wciągnięty do grupy uciekinierów przemierzających tereny spustoszone przez wojnę nuklearną (Wasteland) w pojeździe zwanym War Rig, prowadzonym przez Imperatorkę Furiosę. Uciekają z Cytadeli sterroryzowanej przez Immortana Joe’ego, któremu odebrano coś wyjątkowego. Rozwścieczony watażka zwołuje wszystkie swoje bandy i wytrwale ściga buntowników, podczas gdy na drogach toczy się wysokooktanowa wojna.

Obsada:
Tom Hardy - "Mad" Max Rockatansky
Charlize Theron - Imperator Furiosa
Nicholas Hoult - Nux
Hugh Keays-Byrne - Immortan Joe
Nathan Jones - Rictus Erectus
Zoë Kravitz - Toast
Riley Keough - Capable
Rosie Huntington-Whiteley - Splendid
Abbey Lee Kershaw - The Dag
Courtney Eaton - Fragile
Josh Helman - Slit
Jennifer Hagan - Miss Giddy
iOTA - Coma-Doof Warrior
John Howard - The People Eater
Richard Carter - the Bullet Farmer
Megan Gale - Valkyrie
Angus Sampson - Organic Mechanic


General
ID : 1 (0x1)
Complete name : F:FilmyFilmy 3DDo wstawieniaMad.Max.3D.HOU.1080p.BDRip.60FPS.Leon345Mad.Max.3D.HOU.1080p.BDRip.60FPS.Leon345.m2ts
Format : BDAV
Format/Info : Blu-ray Video
File size : 30.0 GiB
Duration : 2h 0mn
Overall bit rate mode : Variable
Overall bit rate : 35.6 Mbps
Maximum Overall bit rate : 35.5 Mbps

Video
ID : 4113 (0x1011)
Menu ID : 1 (0x1)
Format : AVC
Format/Info : Advanced Video Codec
Format profile : High@L4.1
Format settings, CABAC : Yes
Format settings, ReFrames : 4 frames
Codec ID : 27
Duration : 2h 0mn
Bit rate mode : Variable
Bit rate : 33.0 Mbps
Maximum bit rate : 40.0 Mbps
Width : 1 920 pixels
Height : 1 080 pixels
Display aspect ratio : 16:9
Frame rate : 59.940 fps
Color space : YUV
Chroma subsampling : 4:2:0
Bit depth : 8 bits
Scan type : Progressive
Bits/(Pixel*Frame) : 0.265
Stream size : 27.7 GiB (93%)

Audio #1
ID : 4352 (0x1100)
Menu ID : 1 (0x1)
Format : TrueHD / AC-3
Mode extension : CM (complete main)
Format settings, Endianness : Big
Muxing mode : Stream extension
Codec ID : 131
Duration : 2h 0mn
Bit rate mode : Variable / Constant
Bit rate : 5693 / 384 Kbps
Maximum bit rate : 8 412 Kbps
Channel(s) : 8 channels / 6 channels
Channel positions : Front: L C R, Side: L R, Back: L R, LFE / Front: L C R, Side: L R, LFE
Sampling rate : 48.0 KHz
Bit depth : 16 bits
Stream size : 331 MiB (1%)
Language : English

Audio #2
ID : 4353 (0x1101)
Menu ID : 1 (0x1)
Format : AC-3
Format/Info : Audio Coding 3
Mode extension : CM (complete main)
Format settings, Endianness : Big
Codec ID : 129
Duration : 2h 0mn
Bit rate mode : Constant
Bit rate : 448 Kbps
Channel(s) : 6 channels
Channel positions : Front: L C R, Side: L R, LFE
Sampling rate : 48.0 KHz
Bit depth : 16 bits
Compression mode : Lossy
Stream size : 386 MiB (1%)
Language : Polish

Audio #3
ID : 4354 (0x1102)
Menu ID : 1 (0x1)
Format : AC-3
Format/Info : Audio Coding 3
Mode extension : CM (complete main)
Format settings, Endianness : Big
Codec ID : 129
Duration : 2h 0mn
Bit rate mode : Constant
Bit rate : 384 Kbps
Channel(s) : 6 channels
Channel positions : Front: L C R, Side: L R, LFE
Sampling rate : 48.0 KHz
Bit depth : 16 bits
Compression mode : Lossy
Stream size : 331 MiB (1%)
Language : English

Text #1
ID : 4608 (0x1200)
Menu ID : 1 (0x1)
Format : PGS
Codec ID : 144
Language : English

Text #2
ID : 4609 (0x1201)
Menu ID : 1 (0x1)
Format : PGS
Codec ID : 144
Language : Polish

Source [thx]:
A/V -Mad Max: Na Drodze Gniewu 3D / Mad.Max.Fury.Road.2015.Blu-ray.3D.CEE.1080p.AVC.DD5.1-HDCLUB

 


Aby dodać komentarz należy się zalogować

Logowanie logowanie

Twoja ocena
Podobne torrenty
Made in Dagenham (2010) [DVDRip] [XviD] [Lektor PL] [Dzej Dzej]    Armin van Buuren - A State of Trance 413 (Live from Armada @ Amnesia In Ibiza) (16-07-2009) [MP3@256]    Madagaskar 2 / Madagascar 2: Escape 2 Africa [DVD5] [PAL] [Dubbing PL] [MENU]    Papryka, sex i rock'n'roll - Made in Hungária *2009* [DVDRip] [RMVB] [Lektor PL] [schuldiner]

Made in Dagenham (2010) [DVDRip] [XviD] [Lektor PL] [Dzej Dzej]

Armin van Buuren - A State of Trance 413 (Live from Armada @ Amnesia In Ibiza) (16-07-2009) [MP3@256]

Madagaskar 2 / Madagascar 2: Escape 2 Africa [DVD5] [PAL] [Dubbing PL] [MENU]

Papryka, sex i rock\'n\'roll - Made in Hungária *2009* [DVDRip] [RMVB] [Lektor PL] [schuldiner]




Shoutbox (zawartość shoutboxa widoczna dla zalogowanych użytkowników)


Żaden z plików nie znajduje się na serwerze. Torrenty są własnością użytkowników. Administrator serwisu nie może ponieść konsekwencji za to co użytkownicy wstawiają, lub za to co czynią na stronie. Nie możesz używać tego serwisu do rozpowszechniania lub ściągania materiałów do których nie masz odpowiednich praw lub licencji. Użytkownicy odpowiedzialni są za przestrzeganie tych zasad. profil torrentcity.pl