Avengers: Czas Ultrona 3D Avengers: Age of Ultron *2015*[60FPS] [1080p 3D Half Over Under DTS HD MA 7 1 AC3 BluRay x264 LEON 345] [Dubbing i Napisy PL] torrent

 
Avengers: Czas Ultrona 3D  Avengers: Age of Ultron *2015*[60FPS] [1080p 3D Half Over Under DTS HD MA 7 1 AC3 BluRay x264 LEON 345] [Dubbing i Napisy PL] torrent


Pozycję wystawił:
Ishimura
Dodano:06.05.2017
Kategoria:3D
Rozmiar:32.37 GB
Seedów:2
Peerów:2
Pobrań:0
pobierz torrent

Avengers: Czas Ultrona 3D Avengers: Age of Ultron *2015*[60FPS]
[1080p 3D Half Over Under DTS HD MA 7 1 AC3 BluRay x264 LEON 345]
[Dubbing i Napisy PL] torrent


Avengers: Czas Ultrona - Avengers: Age of Ultron *2015*(60FPS)PL 3D.Half.Over-Under.1080p.BDRip - Leon 345
==============================================
!!!!!!!!!!!!!60 FPS !!!!!!!!!!!!!!!!!!!!!!!!!
==============================================
Film w wersji 3D Over-Under
Do odtworzenia filmu WYMAGANY odpowiedni sprzęt (TV 3D).

Produkcja: USA
Gatunek: Akcja, Sci-Fi
Czas trwania: 141 min.
Premiera: 07.05.2015 - Polska, 13.04.2015 - Świat
Reżyseria: Joss Whedon
Scenariusz: Joss Whedon, Stan Lee

http://filmweb.pl/film/Avengers%3A+Czas+Ultrona-2015-637247
http://imdb.com/title/tt2395427/

Kiedy Tony Stark próbuje wskrzesić dawno zapomniany program utrzymania światowego pokoju, sytuacja niespodziewanie się komplikuje. Na scenę wkracza mroczny Ultron ze zbrodniczym planem zniszczenia całej planety. Los milionów niewinnych istnień spocznie w rękach najpotężniejszych bohaterów Ziemi z drużyny Mścicieli. Iron Man, Kapitan Ameryka, Thor, Hulk, Czarna Wdowa i Hawkeye zostaną wystawieni na największą próbę pełną niełatwych sojuszy i niespodziewanych zwrotów akcji.

Obsada:

Robert Downey Jr......... - Tony Stark / Iron Man
Chris Evans.............. - Steve Rogers / Kapitan Ameryka
Mark Ruffalo............. - Bruce Banner / Hulk
Chris Hemsworth.......... - Thor
Scarlett Johansson....... - Natasha Romanoff / Czarna Wdowa
Jeremy Renner............ - Clint Barton / Sokole Oko
Aaron Taylor-Johnson..... - Pietro Maximoff / Quicksilver
Elizabeth Olsen.......... - Wanda Maximoff / Scarlet Witch

General

Complete name: Avengers.Age.of.Ultron.2015.3D.HOU.1080p.BDRip.60FPS.Leon345.mkv
Format : Matroska
Format version : Version 4 / Version 2
File size : 32.4 GiB
Duration : 2h 21mn
Overall bit rate mode : Variable
Overall bit rate : 32.8 Mbps
Encoded date : UTC 2015-09-10 10:55:01
Writing application : mkvmerge v8.3.0 ('Over the Horizon') 64bit
Writing library : libebml v1.3.1 + libmatroska v1.4.2

Video
ID : 1
Format : AVC
Format/Info : Advanced Video Codec
Format profile : High@L4.1
Format settings, CABAC : Yes
Format settings, ReFrames : 4 frames
Codec ID : V_MPEG4/ISO/AVC
Duration : 2h 21mn
Nominal bit rate : 27.5 Mbps
Width : 1 920 pixels
Height : 1 080 pixels
Display aspect ratio : 16:9
Frame rate mode : Constant
Frame rate : 60.000 fps
Original frame rate : 59.940 fps
Color space : YUV
Chroma subsampling : 4:2:0
Bit depth : 8 bits
Scan type : Progressive
Bits/(Pixel*Frame) : 0.221
Default : Yes
Forced : No

Audio #1
ID : 2
Format : AC-3
Format/Info : Audio Coding 3
Mode extension : CM (complete main)
Format settings, Endianness : Big
Codec ID : A_AC3
Duration : 2h 21mn
Bit rate mode : Constant
Bit rate : 384 Kbps
Channel(s) : 6 channels
Channel positions : Front: L C R, Side: L R, LFE
Sampling rate : 48.0 KHz
Bit depth : 16 bits
Compression mode : Lossy
Stream size : 388 MiB (1%)
Title : Dubbing PL 5.1
Language : Polish
Default : Yes
Forced : Yes

Audio #2
ID : 3
Format : AC-3
Format/Info : Audio Coding 3
Mode extension : CM (complete main)
Format settings, Endianness : Big
Codec ID : A_AC3
Duration : 2h 21mn
Bit rate mode : Constant
Bit rate : 640 Kbps
Channel(s) : 6 channels
Channel positions : Front: L C R, Side: L R, LFE
Sampling rate : 48.0 KHz
Bit depth : 16 bits
Compression mode : Lossy
Stream size : 647 MiB (2%)
Language : English
Default : No
Forced : No

Audio #3
ID : 4
Format : DTS
Format/Info : Digital Theater Systems
Format profile : MA / Core
Mode : 16
Format settings, Endianness : Big
Codec ID : A_DTS
Duration : 2h 21mn
Bit rate mode : Variable
Bit rate : 4229 / 1 509 Kbps
Channel(s) : 8 channels / 6 channels
Channel positions : Front: L C R, Side: L R, Back: L R, LFE / Front: L C R, Side: L R, LFE
Sampling rate : 48.0 KHz
Bit depth : 24 bits
Compression mode : Lossless / Lossy
Title : DTS-HD.MA.7.1
Language : English
Default : No
Forced : No

Text #1
ID : 5
Format : UTF-8
Codec ID : S_TEXT/UTF8
Codec ID/Info : UTF-8 Plain Text
Language : Polish
Default : No
Forced : No

Text #2
ID : 6
Format : PGS
Muxing mode : zlib
Codec ID : S_HDMV/PGS
Codec ID/Info : The same subtitle format used on BDs/HD-DVDs
Language : English
Default : No
Forced : No

Menu
00:00:00.000 : en:(01)00:00:00:000
00:12:15.192 : en:(02)00:12:15:192
00:21:23.949 : en:(03)00:21:23:949
00:33:01.771 : en:(04)00:33:01:771
00:36:07.623 : en:(05)00:36:07:623
00:42:00.768 : en:(06)00:42:00:768
00:52:44.744 : en:(07)00:52:44:744
00:59:01.871 : en:(08)00:59:01:871
01:15:51.088 : en:(09)01:15:51:088
01:27:08.598 : en:(10)01:27:08:598
01:36:44.757 : en:(11)01:36:44:757
01:54:35.326 : en:(12)01:54:35:326
02:06:27.580 : en:(13)02:06:27:580
02:11:08.026 : en:(14)02:11:08:026

Source [thx]:
A/V -Avengers: Age of Ultron (2015) 1080p [2D/3D] BDRemux- HDCLUB
Dubbing PL - VOD - inTGrity THX!
 


Aby dodać komentarz należy się zalogować

Logowanie logowanie

Twoja ocena
Podobne torrenty
Avengers: Czas Ultrona - Avengers: Age of Ultron *2015* [CAM] [AC3] [XVID-MURD3R] [ENG]    Avengers: The Initiative #04 [Tłumaczenie PL] [Ookami Translations]    Avengers: Czas Ultrona - Avengers Age of Ultron *2015* [WEB-DL] [XviD] [AC3-KiT] [Napisy PL]    Avengers: Czas Ultrona / Avengers Age of Ultron (2015) [V2 480p NEW HDTS XViD AC3-J25] [Napisy PL]

Avengers: Czas Ultrona - Avengers: Age of Ultron *2015* [CAM] [AC3] [XVID-MURD3R] [ENG]

Avengers: The Initiative #04 [Tłumaczenie PL] [Ookami Translations]

Avengers: Czas Ultrona - Avengers Age of Ultron *2015* [WEB-DL] [XviD] [AC3-KiT] [Napisy PL]

Avengers: Czas Ultrona / Avengers Age of Ultron (2015) [V2.480p.NEW.HDTS.XViD.AC3-J25] [Napisy PL]




Shoutbox (zawartość shoutboxa widoczna dla zalogowanych użytkowników)


Żaden z plików nie znajduje się na serwerze. Torrenty są własnością użytkowników. Administrator serwisu nie może ponieść konsekwencji za to co użytkownicy wstawiają, lub za to co czynią na stronie. Nie możesz używać tego serwisu do rozpowszechniania lub ściągania materiałów do których nie masz odpowiednich praw lub licencji. Użytkownicy odpowiedzialni są za przestrzeganie tych zasad. profil torrentcity.pl