Pacific Rim 3D *2013* [60 FPS] [1080p 3D Half Over Under DTS HD MA 5 1 AC3 BluRay x264 SONDA] [Lektor i Napisy PL] [ENG] torrent

 
Pacific Rim 3D *2013* [60 FPS] [1080p 3D Half Over Under DTS HD MA 5 1 AC3 BluRay x264 SONDA] [Lektor i Napisy PL] [ENG] torrent


Pozycję wystawił:
Ishimura
Dodano:06.05.2017
Kategoria:3D
Rozmiar:27.10 GB
Seedów:1
Peerów:1
Pobrań:346
pobierz torrent

Pacific Rim 3D *2013* [60 FPS] [1080p 3D Half Over Under DTS HD MA
5 1 AC3 BluRay x264 SONDA] [Lektor i Napisy PL] [ENG] torrent


http://i.imgur.com/Wy5r7V4.jpg

Pacific Rim 3D *2013* (60 FPS) H-OU.BDRip.1080p-Sonda
=========================================
UWAGA: Jest to wersja *****60 FPS*****
============================
Film w wersji 3D Over-Under.
Do odtworzenia filmu WYMAGANY odpowiedni sprzęt (TV 3D)
=========================================

gatunek: Akcja,Sci-Fi
produkcja: USA
premiera: 12 lipca 2013 (Polska) 2 lipca 2013 (świat)
reżyseria: Guillermo del Toro
scenariusz: Travis Beacham,Guillermo del Toro

http://www.filmweb.pl/film?id=618823
http://www.imdb.com/title/tt1663662/

Obsada:

Charlie Hunnam ... Raleigh Antrobus
Idris Elba ... Stacker Pentecost
Ron Perlman ... Hannibal Chow
Charlie Day ... Newt Gotlieb
Rinko Kikuchi ... Mako Mori
Burn Gorman ... Gottlieb
Diego Klattenhoff ... Yancy Becket
Clifton Collins Jr. ... Tendo Choi

Opis:

Ocean Spokojny kryje w sobie wiele tajemnic, lecz nikt się nie spodziewał, że na jego dnie znajduje się zagadkowy, prowadzący do innego wymiaru portal. Pod koniec 2012 roku wyłaniają się z niego ogromnych rozmiarów potwory, które niszczą przybrzeżne miasta i rozpoczynają niszczycielską wędrówkę w głąb lądu, pozostawiając po sobie jedynie zgliszcza. W celu pokonania niebezpieczeństwa wojsko rozpoczyna pracę nad programem "Jaeger", mającym na celu stworzenie gigantycznych mechów bojowych, które operowane przez pary pilotów będą w stanie pokonać bestie.

Storyline:

When monstrous creatures, known as Kaiju, started rising from the sea, a war began that would take millions of lives and consume humanity's resources for years on end. To combat the giant Kaiju, a special type of weapon was devised: massive robots, called Jaegers, which are controlled simultaneously by two pilots whose minds are locked in a neural bridge. But even the Jaegers are proving nearly defenseless in the face of the relentless Kaiju. On the verge of defeat, the forces defending mankind have no choice but to turn to two unlikely heroes - a washed up former pilot (Charlie Hunnam) and an untested trainee (Rinko Kikuchi) - who are teamed to drive a legendary but seemingly obsolete Jaeger from the past. Together, they stand as mankind's last hope against the mounting apocalypse.

Screenshot:

http://i.imgur.com/YWGFyln.jpg
http://i.imgur.com/apblP8f.jpg
http://i.imgur.com/E4n8GBT.jpg
http://i.imgur.com/gqTgZNr.jpg


General
Format : Matroska
Format version : Version 2
File size : 27.1 GiB
Duration : 2h 11mn
Overall bit rate mode : Variable
Overall bit rate : 29.6 Mbps
Movie name : PACIFIC_RIM_3D.2013.H-OU.1080p.60FPS Rip by Sonda [AT-Team]
Encoded date : UTC 2015-09-13 06:21:02
Writing application : mkvmerge v5.7.0 ('The Whirlwind') built on Jul 8 2012 20:08:51
Writing library : libebml v1.2.3 + libmatroska v1.3.0

Video
ID : 1
Format : AVC
Format/Info : Advanced Video Codec
Format profile : High@L4.1
Format settings, CABAC : Yes
Format settings, ReFrames : 4 frames
Codec ID : V_MPEG4/ISO/AVC
Duration : 2h 11mn
Nominal bit rate : 26.0 Mbps
Width : 1 920 pixels
Height : 1 080 pixels
Display aspect ratio : 16:9
Frame rate mode : Constant
Frame rate : 60.000 fps
Original frame rate : 59.940 fps
Color space : YUV
Chroma subsampling : 4:2:0
Bit depth : 8 bits
Scan type : Progressive
Bits/(Pixel*Frame) : 0.209
Title : 60FPS-3D Rip by Sonda
Writing library : x264 core 146
Default : Yes
Forced : No

Audio #1
ID : 2
Format : AC-3
Format/Info : Audio Coding 3
Mode extension : CM (complete main)
Format settings, Endianness : Big
Codec ID : A_AC3
Duration : 2h 11mn
Bit rate mode : Constant
Bit rate : 640 Kbps
Channel(s) : 6 channels
Channel positions : Front: L C R, Side: L R, LFE
Sampling rate : 48.0 KHz
Bit depth : 16 bits
Compression mode : Lossy
Stream size : 601 MiB (2%)
Title : AC3 5.1 Lektor PL
Language : Polish
Default : Yes
Forced : Yes

Audio #2
ID : 3
Format : AC-3
Format/Info : Audio Coding 3
Mode extension : CM (complete main)
Format settings, Endianness : Big
Codec ID : A_AC3
Duration : 2h 11mn
Bit rate mode : Constant
Bit rate : 640 Kbps
Channel(s) : 6 channels
Channel positions : Front: L C R, Side: L R, LFE
Sampling rate : 48.0 KHz
Bit depth : 16 bits
Compression mode : Lossy
Stream size : 601 MiB (2%)
Title : AC3 5.1 ENG
Language : English
Default : No
Forced : No

Audio #3
ID : 4
Format : DTS
Format/Info : Digital Theater Systems
Format profile : MA / Core
Mode : 16
Format settings, Endianness : Big
Codec ID : A_DTS
Duration : 2h 11mn
Bit rate mode : Variable
Bit rate : 2487 / 1 509 Kbps
Channel(s) : 6 channels
Channel positions : Front: L C R, Side: L R, LFE
Sampling rate : 48.0 KHz
Bit depth : 16 bits
Compression mode : Lossless / Lossy
Title : DTS-HD MA 5.1
Language : English
Default : No
Forced : No

Text #1
ID : 5
Format : PGS
Muxing mode : zlib
Codec ID : S_HDMV/PGS
Codec ID/Info : The same subtitle format used on BDs/HD-DVDs
Title : Napisy PL 3D
Language : Polish
Default : No
Forced : No

Text #2
ID : 6
Format : PGS
Muxing mode : zlib
Codec ID : S_HDMV/PGS
Codec ID/Info : The same subtitle format used on BDs/HD-DVDs
Title : Napisy ENG 3D FULL
Language : English
Default : No
Forced : No

Source:
A/V-Pacific.Rim.2013.3D.CEE.BluRay.1080p.AVC.DTS-HD.MA.5.1-CHDBits
 


Aby dodać komentarz należy się zalogować

Logowanie logowanie

Twoja ocena
Podobne torrenty
Pacific Rim *2013* [1080p] [BluRay] [DTS x264-PublicHD] [ENG]    Piekło na Pacyfiku - Hell in the Pacific *1968* [DVDRip XviD-RETRO] [Lektor PL]    Pacyfik - The Pacific [S01E02][PROPER 720p HDTV X264-DIMENSION][ENG][AgusiQ] ♥    BBC Południowy Pacyfik - BBC South Pacific E05 - Niezwykłe Wyspy *2009* [DVDRip XviD] [Lektor PL][TC][jans12]

Pacific Rim *2013* [1080p] [BluRay] [DTS.x264-PublicHD] [ENG]

Piekło na Pacyfiku - Hell in the Pacific *1968* [DVDRip.XviD-RETRO] [Lektor PL]

Pacyfik - The Pacific [S01E02][PROPER.720p.HDTV.X264-DIMENSION][ENG][AgusiQ] ♥

BBC Południowy Pacyfik - BBC South Pacific E05 - Niezwykłe Wyspy *2009* [DVDRip.XviD] [Lektor PL][TC][jans12]




Shoutbox (zawartość shoutboxa widoczna dla zalogowanych użytkowników)


Żaden z plików nie znajduje się na serwerze. Torrenty są własnością użytkowników. Administrator serwisu nie może ponieść konsekwencji za to co użytkownicy wstawiają, lub za to co czynią na stronie. Nie możesz używać tego serwisu do rozpowszechniania lub ściągania materiałów do których nie masz odpowiednich praw lub licencji. Użytkownicy odpowiedzialni są za przestrzeganie tych zasad. profil torrentcity.pl